<?xml version="1.0" standalone="no"?>
<!DOCTYPE svg PUBLIC "-//W3C//DTD SVG 1.1//EN" "http://www.w3.org/Graphics/SVG/1.1/DTD/svg11.dtd" >
<svg xmlns="http://www.w3.org/2000/svg">
<metadata></metadata>
<defs>
<font id="proxima_novamedium_italic" horiz-adv-x="233" >
<font-face units-per-em="1000" ascent="790" descent="-210" />
<missing-glyph horiz-adv-x="258" />
<glyph unicode="&#xfb01;" horiz-adv-x="529" d="M130 404h-80l17 79h80l7 32q18 79 59 120.5t106 41.5q56 0 93 -25l-34 -63q-18 14 -50 14q-34 0 -54 -22t-30 -66l-7 -32h98l-17 -79h-98l-90 -404h-90zM455.5 656q20.5 18 44.5 18q22 0 37.5 -15t15.5 -35q0 -29 -20.5 -47t-44.5 -18q-22 0 -37.5 14.5t-15.5 35.5 q0 29 20.5 47zM421 483h90l-107 -483h-90z" />
<glyph unicode="&#xfb02;" horiz-adv-x="529" d="M130 404h-80l17 79h80l7 32q18 79 59 120.5t106 41.5q56 0 93 -25l-34 -63q-18 14 -50 14q-34 0 -54 -22t-30 -66l-7 -32h98l-17 -79h-98l-90 -404h-90zM461 667h90l-147 -667h-90z" />
<glyph unicode="&#xfb03;" horiz-adv-x="825" d="M130 404h-80l17 79h80l7 32q18 79 59 120.5t106 41.5q56 0 93 -25l-34 -63q-18 14 -50 14q-34 0 -54 -22t-30 -66l-7 -32h98l-17 -79h-98l-90 -404h-90zM426 404h-80l17 79h80l7 32q18 79 59 120.5t106 41.5q56 0 93 -25l-34 -63q-18 14 -50 14q-34 0 -54 -22t-30 -66 l-7 -32h98l-17 -79h-98l-90 -404h-90zM751.5 656q20.5 18 44.5 18q22 0 37.5 -15t15.5 -35q0 -29 -20.5 -47t-44.5 -18q-22 0 -37.5 14.5t-15.5 35.5q0 29 20.5 47zM717 483h90l-107 -483h-90z" />
<glyph unicode="&#xfb04;" horiz-adv-x="825" d="M130 404h-80l17 79h80l7 32q18 79 59 120.5t106 41.5q56 0 93 -25l-34 -63q-18 14 -50 14q-34 0 -54 -22t-30 -66l-7 -32h98l-17 -79h-98l-90 -404h-90zM426 404h-80l17 79h80l7 32q18 79 59 120.5t106 41.5q56 0 93 -25l-34 -63q-18 14 -50 14q-34 0 -54 -22t-30 -66 l-7 -32h98l-17 -79h-98l-90 -404h-90zM757 667h90l-147 -667h-90z" />
<glyph horiz-adv-x="0" />
<glyph unicode="&#xd;" horiz-adv-x="0" />
<glyph horiz-adv-x="0" />
<glyph horiz-adv-x="0" />
<glyph unicode=" "  horiz-adv-x="258" />
<glyph unicode="&#x09;" horiz-adv-x="258" />
<glyph unicode="&#xa0;" horiz-adv-x="258" />
<glyph unicode="!" horiz-adv-x="238" d="M156 667h111l-122 -472h-76zM33 94.5q20 19.5 49 19.5q23 0 39.5 -16.5t16.5 -41.5q0 -27 -20 -47t-48 -20q-24 0 -40.5 17t-16.5 41q0 28 20 47.5z" />
<glyph unicode="&#x22;" horiz-adv-x="361" d="M132 614q2 27 19 45t42 18q19 0 32.5 -13.5t13.5 -34.5q0 -10 -6 -25q-14 -35 -39 -104t-36 -99h-43zM289 614q1 27 18.5 45t42.5 18q19 0 32.5 -13.5t13.5 -34.5q0 -10 -6 -25q-14 -35 -39.5 -104t-36.5 -99h-42z" />
<glyph unicode="#" horiz-adv-x="598" d="M285 177h-106l-98 -177h-71l99 177h-104l33 61h105l105 190h-105l32 60h107l98 179h71l-99 -179h106l98 179h71l-100 -179h105l-31 -60h-106l-107 -190h109l-32 -61h-110l-98 -177h-71zM319 428l-106 -190h105l106 190h-105z" />
<glyph unicode="$" horiz-adv-x="599" d="M498.5 310.5q46.5 -39.5 46.5 -106.5q0 -64 -34.5 -114.5t-94.5 -77.5t-133 -24l-20 -88h-71l21 96q-65 12 -116.5 42t-79.5 71l65 73q26 -35 65 -60.5t87 -36.5l47 217q-53 21 -88.5 42t-59.5 53.5t-24 78.5q0 61 36.5 108t95.5 72t124 21l20 91h71l-22 -100 q52 -10 95 -35.5t71 -61.5l-66 -71q-44 59 -121 78l-43 -196q82 -32 128.5 -71.5zM346 589q-33 1 -63.5 -11t-49 -35t-18.5 -51q0 -27 23.5 -46.5t66.5 -37.5zM379.5 93.5q30.5 16.5 44.5 41.5t14 52q0 29 -23.5 49.5t-68.5 40.5l-43 -200q46 0 76.5 16.5z" />
<glyph unicode="%" horiz-adv-x="739" d="M110.5 583.5q24.5 44.5 66 69t89.5 24.5q64 0 108 -37.5t44 -98.5q0 -56 -25 -100.5t-66 -69t-89 -24.5q-64 0 -108 37.5t-44 98.5q0 56 24.5 100.5zM648 667h61l-574 -667h-60zM324.5 594q-24.5 24 -61.5 24q-29 0 -54 -16.5t-40 -46t-15 -66.5q0 -36 24.5 -60t61.5 -24 q29 0 54 17t40 46.5t15 66.5q0 35 -24.5 59zM384 224.5q25 44.5 66 69t89 24.5q64 0 108.5 -37.5t44.5 -98.5q0 -56 -25 -100.5t-66.5 -69t-88.5 -24.5q-64 0 -108.5 37.5t-44.5 98.5q0 56 25 100.5zM598.5 235q-24.5 24 -61.5 24q-29 0 -54 -16.5t-40 -46t-15 -66.5 q0 -36 24.5 -60t61.5 -24q29 0 54 17t40 46.5t15 66.5q0 35 -24.5 59z" />
<glyph unicode="&#x26;" horiz-adv-x="643" d="M465 109q35 -52 81 -109h-111l-38 51q-88 -63 -179 -63t-148 43.5t-57 125.5q0 88 51.5 138.5t142.5 86.5q-21 61 -21 112q0 50 26 92t69.5 66.5t94.5 24.5q67 0 111 -32.5t44 -91.5q0 -55 -29 -91.5t-71.5 -58.5t-111.5 -47q18 -38 47 -88q32 -55 58 -97q32 35 59 72.5 t43 67.5l67 -41q-65 -99 -128 -161zM295 414q75 27 113.5 55t38.5 75q0 31 -19.5 48t-48.5 17q-24 0 -47 -13.5t-38 -39t-15 -61.5t16 -81zM355 110q-51 76 -67 104q-33 58 -56 107q-57 -27 -88.5 -62.5t-31.5 -89.5q0 -52 34 -80t85 -28q58 0 124 49z" />
<glyph unicode="'" horiz-adv-x="206" d="M132 614q2 27 19 45t42 18q19 0 32.5 -13.5t13.5 -34.5q0 -10 -6 -25q-14 -35 -39 -104t-36 -99h-43z" />
<glyph unicode="(" horiz-adv-x="262" d="M41.5 -64q-17.5 76 -17.5 159q0 155 68.5 309t193.5 281l47 -47q-214 -274 -214 -572q0 -100 37 -229l-64 -36q-33 59 -50.5 135z" />
<glyph unicode=")" horiz-adv-x="262" d="M219 549.5q18 -76.5 18 -158.5q0 -156 -69 -309t-194 -281l-46 47q214 272 214 572q0 100 -37 229l63 36q33 -59 51 -135.5z" />
<glyph unicode="*" horiz-adv-x="343" d="M207 499l-109 -50l-15 45l112 40l-89 61l35 40l81 -70l19 112h52l-32 -116l109 50l14 -46l-110 -40l88 -61l-35 -40l-81 70l-19 -111h-52z" />
<glyph unicode="+" horiz-adv-x="500" d="M250 97h-65l46 210h-188l13 60h189l44 203h66l-45 -203h189l-14 -60h-188z" />
<glyph unicode="," horiz-adv-x="238" d="M-18 -87q28 13 53.5 36.5t34.5 47.5h-9q-20 0 -34 14t-14 36q0 27 20.5 47t47.5 20q26 0 43 -17t17 -48q0 -49 -36 -98t-88 -75z" />
<glyph unicode="-" horiz-adv-x="300" d="M38 281h240l-18 -78h-240z" />
<glyph unicode="." horiz-adv-x="238" d="M33 94.5q20 19.5 49 19.5q23 0 39.5 -16.5t16.5 -41.5q0 -27 -20 -47t-48 -20q-24 0 -40.5 17t-16.5 41q0 28 20 47.5z" />
<glyph unicode="/" horiz-adv-x="306" d="M333 687h72l-394 -707h-71z" />
<glyph unicode="0" horiz-adv-x="614" d="M94 453.5q40 98.5 113 161t167 62.5q105 0 164 -69.5t59 -191.5q0 -105 -39.5 -204t-112 -161.5t-166.5 -62.5q-106 0 -165.5 70t-59.5 192q0 105 40 203.5zM464 543q-32 45 -100 45q-62 0 -109.5 -53t-73 -133t-25.5 -157t32.5 -122.5t100.5 -45.5q61 0 108.5 53 t73 133.5t25.5 157.5t-32 122z" />
<glyph unicode="1" horiz-adv-x="359" d="M249 536l-133 -113l-45 61l219 183h88l-147 -667h-100z" />
<glyph unicode="2" horiz-adv-x="591" d="M19 96q159 96 251.5 159t146 122t53.5 114q0 45 -37.5 71.5t-98.5 26.5q-101 0 -170 -64l-45 71q40 37 99 59t122 22t117 -20.5t86.5 -61t32.5 -98.5q0 -101 -104.5 -199t-295.5 -210h311l-19 -88h-470z" />
<glyph unicode="3" horiz-adv-x="565" d="M64 185q27 -50 81 -79t114 -29q69 0 108 35t39 91q0 42 -36 67.5t-104 25.5q-59 0 -70 -1l21 91q11 -1 91 -1q66 0 109 27t43 80q0 42 -40 69t-106 27q-44 0 -87.5 -15.5t-79.5 -46.5l-39 68q40 38 96.5 60.5t117.5 22.5q108 0 174 -45t66 -125q0 -47 -26.5 -84t-68 -59 t-85.5 -26q53 -13 87.5 -50t34.5 -94t-31.5 -104t-87.5 -74.5t-126 -27.5q-88 0 -162 38t-103 101z" />
<glyph unicode="4" horiz-adv-x="569" d="M328 160h-317l20 89l366 418h143l-93 -419h92l-19 -88h-92l-35 -160h-100zM129 248h218l73 328z" />
<glyph unicode="5" horiz-adv-x="595" d="M104 181q26 -52 72.5 -78t110.5 -26q44 0 79.5 19.5t55.5 52.5t20 73q0 55 -39.5 85.5t-104.5 30.5q-39 0 -70.5 -11t-63.5 -35l-65 30l76 345h422l-19 -88h-323l-44 -202q56 44 138 44q54 0 99 -22t71.5 -64.5t26.5 -101.5q0 -66 -33.5 -122.5t-93.5 -89.5t-136 -33 q-179 0 -253 131z" />
<glyph unicode="6" horiz-adv-x="596" d="M89 442q39 102 115 168.5t183 66.5q70 0 122.5 -25.5t85.5 -72.5l-65 -68q-22 37 -61 57t-88 20q-83 0 -137 -66t-78 -160q-5 -11 -7 -22q31 32 82 56.5t105 24.5q90 0 147 -48t57 -130q0 -68 -35 -126.5t-95 -93.5t-132 -35q-113 0 -175.5 65.5t-62.5 183.5 q0 103 39 205zM406.5 309.5q-39.5 29.5 -103.5 29.5q-43 0 -82 -19.5t-72 -53.5q-2 -16 -2 -44q0 -65 38 -105t104 -40q44 0 80 21t56.5 56t20.5 76q0 50 -39.5 79.5z" />
<glyph unicode="7" horiz-adv-x="523" d="M450 579h-348l20 88h468l-15 -69l-396 -598h-115z" />
<glyph unicode="8" horiz-adv-x="588" d="M79 283q53 52 143 72q-47 18 -79 54t-32 84q0 60 35.5 101.5t91.5 62t117 20.5q62 0 116.5 -19.5t88 -57t33.5 -89.5q0 -69 -51 -115.5t-134 -61.5q51 -24 86 -63.5t35 -91.5q0 -56 -35 -99.5t-93 -67.5t-126 -24q-108 0 -178.5 44.5t-70.5 128.5q0 70 53 122zM445.5 560 q-39.5 27 -96.5 27t-97.5 -28t-40.5 -76q0 -35 36 -62.5t78 -36.5q73 5 116.5 33.5t43.5 76.5q0 39 -39.5 66zM390.5 258q-37.5 30 -84.5 42q-75 -5 -125 -38t-50 -84q0 -48 41.5 -74.5t106.5 -26.5q38 0 72 13.5t55.5 39t21.5 58.5q0 40 -37.5 70z" />
<glyph unicode="9" horiz-adv-x="596" d="M545.5 223.5q-38.5 -101.5 -115 -168t-184.5 -66.5q-69 0 -122 25.5t-84 71.5l65 69q20 -37 58.5 -57t89.5 -20q82 0 136.5 65.5t79.5 159.5l6 22q-30 -32 -81.5 -56.5t-105.5 -24.5q-59 0 -105.5 22t-73 62.5t-26.5 94.5q0 68 35 126.5t95.5 93.5t132.5 35 q113 0 175.5 -65.5t62.5 -183.5q0 -104 -38.5 -205.5zM227 356q40 -30 103 -30q43 0 83 19.5t72 53.5q2 18 2 44q0 66 -38.5 106t-103.5 40q-44 0 -80.5 -21t-57 -56.5t-20.5 -75.5q0 -50 40 -80z" />
<glyph unicode=":" horiz-adv-x="238" d="M116.5 470q20.5 20 47.5 20q25 0 41.5 -16.5t16.5 -40.5q0 -28 -20.5 -48t-48.5 -20q-24 0 -40.5 17t-16.5 41q0 27 20.5 47zM33 94.5q20 19.5 49 19.5q23 0 39.5 -16.5t16.5 -41.5q0 -27 -20 -47t-48 -20q-24 0 -40.5 17t-16.5 41q0 28 20 47.5z" />
<glyph unicode=";" horiz-adv-x="238" d="M116.5 470q20.5 20 47.5 20q25 0 41.5 -16.5t16.5 -40.5q0 -28 -20.5 -48t-48.5 -20q-24 0 -40.5 17t-16.5 41q0 27 20.5 47zM-18 -87q28 13 53.5 36.5t34.5 47.5h-9q-20 0 -34 14t-14 36q0 27 20.5 47t47.5 20q26 0 43 -17t17 -48q0 -49 -36 -98t-88 -75z" />
<glyph unicode="&#x3c;" horiz-adv-x="500" d="M56 367l489 213l-17 -75l-409 -175l332 -172l-15 -68l-395 212z" />
<glyph unicode="=" horiz-adv-x="500" d="M76 460h443l-14 -60h-442zM34 268h442l-13 -60h-442z" />
<glyph unicode="&#x3e;" horiz-adv-x="500" d="M11 165l409 172l-332 175l15 68l395 -213l-14 -65l-490 -212z" />
<glyph unicode="?" horiz-adv-x="460" d="M162 261q0 36 17 62t41 42.5t65 38.5q52 27 77 49.5t25 57.5q0 36 -29 57t-81 21q-82 0 -144 -60l-45 68q89 80 202 80q58 0 104.5 -18t73 -51.5t26.5 -77.5q0 -46 -20.5 -78.5t-49 -52.5t-75.5 -45q-51 -26 -75.5 -47t-24.5 -53q0 -20 16 -36l-81 -28q-22 33 -22 71z M139 94.5q20 19.5 48 19.5q24 0 40.5 -16.5t16.5 -41.5q0 -27 -20 -47t-48 -20q-24 0 -40.5 17t-16.5 41q0 28 20 47.5z" />
<glyph unicode="@" horiz-adv-x="783" d="M110.5 440q55.5 91 147 144.5t194.5 53.5q92 0 164 -42t111.5 -114t39.5 -158q0 -76 -26.5 -130t-68 -81.5t-85.5 -27.5q-41 0 -65.5 23t-27.5 56l-1 6q-27 -38 -68.5 -61.5t-85.5 -23.5q-70 0 -112 45.5t-42 118.5q0 67 33.5 124.5t87 91t112.5 33.5q45 0 78 -20.5 t49 -53.5l12 59h82l-56 -263q-2 -12 -2 -22q0 -24 12.5 -37t31.5 -13q22 0 46 18t41 57.5t17 100.5q0 81 -35 144t-98.5 98.5t-147.5 35.5q-94 0 -176.5 -50t-131.5 -132t-49 -174q0 -79 37 -143t102 -101t146 -37q98 0 185 55l19 -27q-98 -63 -208 -63q-89 0 -161.5 41.5 t-114 113.5t-41.5 159q0 105 55.5 196zM532 366q-10 26 -35 46.5t-62 20.5q-46 0 -83.5 -25.5t-59.5 -66.5t-22 -86q0 -47 25.5 -76t70.5 -29q44 0 78.5 24t59.5 59z" />
<glyph unicode="A" horiz-adv-x="666" d="M477 138h-327l-84 -138h-115l412 667h125l118 -667h-105zM199 227h269l-57 350z" />
<glyph unicode="B" horiz-adv-x="638" d="M167 667h291q51 0 90 -20.5t61 -55.5t22 -79q0 -45 -21 -84.5t-56.5 -64t-76.5 -28.5q43 -12 70 -51t27 -86q0 -51 -25 -96.5t-76.5 -73.5t-127.5 -28h-325zM497 555q-27 24 -65 24h-184l-43 -195h199q61 0 90.5 33t29.5 79q0 35 -27 59zM447 271q-26 25 -72 25h-190 l-46 -208h202q62 0 97 34.5t35 83.5q0 40 -26 65z" />
<glyph unicode="C" horiz-adv-x="679" d="M108.5 488q52.5 90 139.5 140t186 50q102 0 173 -45t106 -121l-95 -36q-26 56 -76 84.5t-113 28.5q-70 0 -132 -38.5t-99.5 -107t-37.5 -155.5q0 -62 26.5 -110t75 -74.5t113.5 -26.5q46 0 91 20t81 56l76 -54q-52 -57 -118.5 -84t-135.5 -27q-89 0 -160.5 36.5 t-112 103.5t-40.5 154q0 116 52.5 206z" />
<glyph unicode="D" horiz-adv-x="705" d="M167 667h233q74 0 139 -36.5t103.5 -101.5t38.5 -147q0 -96 -46 -183.5t-141.5 -143t-236.5 -55.5h-237zM433.5 127q68.5 39 105.5 105t37 144q0 57 -25 103.5t-69.5 73t-99.5 26.5h-134l-109 -491h136q90 0 158.5 39z" />
<glyph unicode="E" horiz-adv-x="573" d="M167 667h448l-20 -88h-347l-43 -195h340l-20 -88h-340l-46 -208h347l-18 -88h-448z" />
<glyph unicode="F" horiz-adv-x="556" d="M167 667h448l-20 -88h-347l-43 -195h340l-20 -88h-340l-65 -296h-100z" />
<glyph unicode="G" horiz-adv-x="715" d="M107 484.5q51 90.5 139.5 142t195.5 51.5q94 0 162.5 -42t103.5 -109l-91 -41q-23 48 -74 75.5t-114 27.5q-70 0 -132 -39.5t-99.5 -108t-37.5 -153.5q0 -62 26.5 -110t75 -74.5t113.5 -26.5q91 0 163 65l27 120h-214l19 88h314l-55 -248q-51 -55 -117.5 -84.5 t-142.5 -29.5q-90 0 -161.5 37t-111.5 103.5t-40 153.5q0 112 51 202.5z" />
<glyph unicode="H" horiz-adv-x="717" d="M555 298h-369l-66 -298h-100l147 667h100l-61 -280h368l62 280h100l-147 -667h-100z" />
<glyph unicode="I" horiz-adv-x="249" d="M167 667h100l-147 -667h-100z" />
<glyph unicode="J" horiz-adv-x="478" d="M33 142q18 -31 49.5 -48t71.5 -17q57 0 92.5 34.5t48.5 95.5l101 460h100l-101 -461q-25 -110 -83.5 -164t-151.5 -54q-58 0 -107 21t-77 61z" />
<glyph unicode="K" horiz-adv-x="611" d="M251 295l-82 -76l-49 -219h-100l147 667h100l-71 -322l343 322h131l-344 -316l219 -351h-117z" />
<glyph unicode="L" horiz-adv-x="517" d="M167 667h100l-128 -579h302l-18 -88h-403z" />
<glyph unicode="M" horiz-adv-x="822" d="M713 546l-335 -546h-42l-96 546l-120 -546h-100l147 667h138l85 -495l304 495h147l-147 -667h-100z" />
<glyph unicode="N" horiz-adv-x="714" d="M238 535l-118 -535h-100l147 667h103l247 -523l116 523h100l-147 -667h-97z" />
<glyph unicode="O" horiz-adv-x="765" d="M106 482q50 91 137 143.5t191 52.5q88 0 159.5 -35.5t112.5 -101.5t41 -156q0 -110 -50 -201t-137 -143.5t-191 -52.5q-88 0 -159.5 35.5t-112.5 102t-41 156.5q0 109 50 200zM614.5 491q-28.5 48 -77.5 73t-109 25q-72 0 -133.5 -39.5t-98 -108.5t-36.5 -153 q0 -66 28.5 -113.5t77 -72.5t109.5 -25q72 0 133.5 39.5t98 108.5t36.5 153q0 65 -28.5 113z" />
<glyph unicode="P" horiz-adv-x="597" d="M167 667h259q59 0 102 -24t66 -64t23 -88q0 -56 -26.5 -109.5t-85.5 -89t-149 -35.5h-179l-57 -257h-100zM473 384.5q40 39.5 40 97.5q0 40 -29.5 68.5t-73.5 28.5h-162l-52 -234h168q69 0 109 39.5z" />
<glyph unicode="Q" horiz-adv-x="765" d="M706.5 204q-40.5 -84 -110.5 -138l40 -58l-81 -42l-36 53q-71 -31 -150 -31q-88 0 -159.5 35.5t-112.5 102t-41 156.5q0 109 50 200t137 143.5t191 52.5q88 0 159.5 -35.5t112.5 -101.5t41 -156q0 -97 -40.5 -181zM467 95l-73 107l80 42l69 -101q47 41 73.5 102.5 t26.5 132.5q0 65 -28.5 113t-77.5 73t-109 25q-72 0 -133.5 -39.5t-98 -108.5t-36.5 -153q0 -66 28.5 -113.5t77 -72.5t109.5 -25q49 0 92 18z" />
<glyph unicode="R" horiz-adv-x="618" d="M307 257h-131l-56 -257h-100l147 667h257q51 0 95.5 -22t71.5 -62.5t27 -93.5q0 -61 -26.5 -110t-74 -80t-108.5 -37l111 -262h-110zM473 383.5q40 38.5 40 96.5q0 42 -32 70.5t-74 28.5h-159l-52 -234h168q69 0 109 38.5z" />
<glyph unicode="S" horiz-adv-x="590" d="M77 182q35 -49 93.5 -77t127.5 -28q45 0 75 16.5t44.5 41.5t14.5 52q0 25 -17.5 44t-43.5 31.5t-73 31.5q-62 24 -101 44t-66.5 54t-27.5 84q0 53 31 99.5t86.5 74t125.5 27.5q78 0 144.5 -28.5t103.5 -77.5l-66 -71q-32 43 -85 66t-110 23q-34 0 -62.5 -13.5t-44.5 -36 t-16 -47.5q0 -33 31.5 -53.5t99.5 -47.5q61 -23 101.5 -44.5t68.5 -56.5t28 -86q0 -57 -29.5 -106.5t-86 -79.5t-133.5 -30q-90 0 -165.5 33.5t-113.5 87.5z" />
<glyph unicode="T" horiz-adv-x="573" d="M310 579h-207l20 88h513l-19 -88h-207l-127 -579h-100z" />
<glyph unicode="U" horiz-adv-x="710" d="M143 49q-68 61 -68 164q0 36 6 63l86 391h101l-85 -388q-7 -32 -7 -57q0 -66 43 -106t119 -40q86 0 133 48t67 139l89 404h101l-89 -405q-29 -133 -99.5 -203.5t-206.5 -70.5q-122 0 -190 61z" />
<glyph unicode="V" horiz-adv-x="666" d="M98 667h109l90 -558l337 558h119l-412 -667h-125z" />
<glyph unicode="W" horiz-adv-x="893" d="M506 515l-252 -515h-107l-44 667h109l20 -535l264 535h81l27 -535l257 535h114l-337 -667h-107z" />
<glyph unicode="X" horiz-adv-x="656" d="M336 269l-255 -269h-128l333 348l-171 319h114l133 -252l236 252h128l-313 -331l181 -336h-113z" />
<glyph unicode="Y" horiz-adv-x="632" d="M273 279l-175 388h109l130 -298l260 298h122l-346 -388l-61 -279h-100z" />
<glyph unicode="Z" horiz-adv-x="587" d="M10 82l461 497h-351l19 88h487l-17 -82l-463 -497h360l-20 -88h-494z" />
<glyph unicode="[" horiz-adv-x="254" d="M138 678h195l-15 -64h-127l-163 -740h126l-14 -64h-195z" />
<glyph unicode="\" horiz-adv-x="306" d="M167 687l80 -707h-69l-80 707h69z" />
<glyph unicode="]" horiz-adv-x="254" d="M-65 -126h126l165 740h-127l14 64h195l-193 -868h-194z" />
<glyph unicode="^" horiz-adv-x="434" d="M299 603l-187 -270h-74l239 334h67l90 -334h-67z" />
<glyph unicode="_" horiz-adv-x="564" d="M-65 -40h569l-15 -64h-569z" />
<glyph unicode="`" d="M101 700h89l112 -144h-66z" />
<glyph unicode="a" horiz-adv-x="578" d="M469 483h90l-107 -483h-90l15 67q-63 -79 -155 -79q-84 0 -135 52.5t-51 146.5q0 79 31 149.5t89 114.5t134 44q53 0 96 -22.5t68 -62.5zM165.5 105q34.5 -37 91.5 -37q40 0 77 21.5t60 53.5l45 200q-18 32 -54 52t-83 20q-49 0 -88 -29.5t-61 -78t-22 -103.5 q0 -62 34.5 -99z" />
<glyph unicode="b" horiz-adv-x="578" d="M108 0h-90l147 667h90l-56 -251q65 79 156 79q84 0 135 -53t51 -147q0 -78 -31 -148.5t-89 -114.5t-134 -44q-53 0 -96 22.5t-68 62.5zM411 377.5q-35 37.5 -91 37.5q-41 0 -77.5 -21.5t-60.5 -54.5l-44 -200q18 -32 54 -51.5t83 -19.5q49 0 88 29.5t61 78t22 102.5 q0 62 -35 99.5z" />
<glyph unicode="c" horiz-adv-x="496" d="M73.5 350q36.5 67 99 106t138.5 39q67 0 113 -24t72 -68l-68 -51q-17 30 -48 46.5t-68 16.5q-54 0 -96 -28.5t-64.5 -76.5t-22.5 -103q0 -66 40 -102.5t103 -36.5q34 0 64 15t52 40l50 -61q-70 -74 -175 -74q-67 0 -118 26.5t-79.5 75.5t-28.5 115q0 78 36.5 145z" />
<glyph unicode="d" horiz-adv-x="578" d="M510 667h90l-148 -667h-90l15 67q-63 -79 -155 -79q-84 0 -135 52.5t-51 146.5q0 79 31 149.5t89 114.5t134 44q53 0 96 -22.5t68 -62.5zM165.5 105q34.5 -37 91.5 -37q40 0 77 21.5t60 53.5l45 200q-18 32 -54 52t-83 20q-49 0 -88 -29.5t-61 -78t-22 -103.5 q0 -62 34.5 -99z" />
<glyph unicode="e" horiz-adv-x="560" d="M73 349q36 67 98.5 106.5t138.5 39.5q63 0 110.5 -26.5t74 -75t26.5 -111.5q0 -17 -3 -37.5t-6 -32.5h-383q-2 -8 -2 -20q0 -34 18 -63.5t53 -48t85 -18.5q35 0 71.5 11.5t62.5 32.5l29 -63q-34 -25 -79 -40t-90 -15q-111 0 -175.5 58t-64.5 157q0 79 36 146zM440 293 q0 56 -36 92t-101 36q-40 0 -75.5 -20t-59 -53t-30.5 -71h301q1 3 1 16z" />
<glyph unicode="f" horiz-adv-x="296" d="M130 404h-80l17 79h80l7 32q18 79 59 120.5t106 41.5q56 0 93 -25l-34 -63q-18 14 -50 14q-34 0 -54 -22t-30 -66l-7 -32h98l-17 -79h-98l-90 -404h-90z" />
<glyph unicode="g" horiz-adv-x="577" d="M47 -53q23 -34 66 -51.5t97 -17.5q57 0 98 33t57 108l13 58q-29 -37 -70 -58t-89 -21q-80 0 -131.5 50t-51.5 149q0 76 30.5 145t88 111t132.5 42q47 0 93 -23.5t72 -61.5l17 73h90l-104 -464q-24 -116 -89.5 -165.5t-153.5 -49.5q-74 0 -128.5 19t-92.5 64zM437 340 q-19 35 -57.5 55t-83.5 20q-49 0 -87 -28.5t-59 -75.5t-21 -99q0 -62 35 -98.5t94 -36.5q37 0 74 20.5t62 51.5z" />
<glyph unicode="h" horiz-adv-x="560" d="M412 310q5 20 5 32q0 37 -26 55t-69 18q-36 0 -73 -20.5t-66 -50.5l-75 -344h-90l147 667h90l-56 -252q84 80 168 80q67 0 106.5 -32t39.5 -89q0 -15 -5 -40l-74 -334h-90z" />
<glyph unicode="i" d="M159.5 656q20.5 18 44.5 18q22 0 37.5 -15t15.5 -35q0 -29 -20.5 -47t-44.5 -18q-22 0 -37.5 14.5t-15.5 35.5q0 29 20.5 47zM125 483h90l-107 -483h-90z" />
<glyph unicode="j" d="M154.5 573.5q-15.5 14.5 -15.5 35.5q0 29 20.5 47t44.5 18q22 0 37.5 -15t15.5 -35q0 -29 -20.5 -47t-44.5 -18q-22 0 -37.5 14.5zM-110 -112q15 -7 37 -7q62 0 82 81l116 521h90l-116 -521q-18 -78 -57 -118t-106 -40q-38 0 -68 12z" />
<glyph unicode="k" horiz-adv-x="520" d="M230 211l-93 -77l-29 -134h-90l147 667h90l-94 -424l282 240h118l-257 -219l152 -264h-109z" />
<glyph unicode="l" d="M165 667h90l-147 -667h-90z" />
<glyph unicode="m" horiz-adv-x="820" d="M675 316q4 20 4 30q0 31 -23 50t-56 19q-32 0 -64.5 -20t-58.5 -50l-76 -345h-90l70 316q4 24 4 35q-1 28 -22 46t-58 18q-30 0 -62.5 -20t-59.5 -50l-75 -345h-90l107 483h90l-16 -68q72 80 151 80q40 0 68.5 -15.5t43 -36.5t14.5 -35v-3q32 39 75 64.5t93 25.5 q55 0 92.5 -32t37.5 -89q0 -12 -5 -40l-74 -334h-90z" />
<glyph unicode="n" horiz-adv-x="559" d="M412 310q5 23 5 32q0 37 -24.5 55t-62.5 18q-41 0 -79 -20t-68 -50l-75 -345h-90l107 483h90l-16 -68q84 80 168 80q67 0 106.5 -32t39.5 -89q0 -15 -5 -40l-74 -334h-90z" />
<glyph unicode="o" horiz-adv-x="572" d="M71.5 346.5q35.5 67.5 97.5 108t139 40.5q70 0 121 -27.5t78.5 -76t27.5 -112.5q0 -76 -35.5 -143t-98 -107.5t-139.5 -40.5q-105 0 -165.5 59.5t-60.5 156.5q0 75 35.5 142.5zM405 377.5q-36 37.5 -99 37.5q-50 0 -90 -29.5t-63 -77t-23 -100.5q0 -65 36 -102.5 t99 -37.5q50 0 90 29t63 77t23 101q0 65 -36 102.5z" />
<glyph unicode="p" horiz-adv-x="575" d="M67 -184h-90l148 667h90l-16 -67q65 79 156 79q84 0 135 -53t51 -147q0 -78 -31 -148.5t-89 -114.5t-134 -44q-53 0 -96 22.5t-68 62.5zM411 377.5q-35 37.5 -91 37.5q-41 0 -77.5 -21.5t-60.5 -54.5l-44 -200q18 -32 54 -51.5t83 -19.5q49 0 88 29.5t61 78t22 102.5 q0 62 -35 99.5z" />
<glyph unicode="q" horiz-adv-x="575" d="M469 483h90l-148 -667h-90l56 251q-63 -79 -155 -79q-84 0 -135 52.5t-51 146.5q0 79 31 149.5t89 114.5t134 44q53 0 96 -22.5t68 -62.5zM165.5 105q34.5 -37 91.5 -37q40 0 77 21.5t60 53.5l45 200q-18 32 -54 52t-83 20q-49 0 -88 -29.5t-61 -78t-22 -103.5 q0 -62 34.5 -99z" />
<glyph unicode="r" horiz-adv-x="338" d="M125 483h90l-17 -71q37 41 78 61.5t99 20.5l-20 -91q-24 4 -40 4q-38 0 -74 -21t-60 -52l-73 -334h-90z" />
<glyph unicode="s" horiz-adv-x="468" d="M54 136q21 -30 66.5 -53t96.5 -23q45 0 72 22t27 53q0 25 -25 40.5t-77 34.5q-49 18 -78 32.5t-50.5 39.5t-21.5 61q0 41 22 75.5t65 55.5t101 21q60 0 111 -22t79 -57l-49 -59q-18 27 -59 46t-85 19t-69.5 -18.5t-25.5 -46.5q0 -23 23 -36.5t75 -33.5q49 -18 79.5 -33 t52.5 -41t22 -64q0 -43 -23.5 -80t-67.5 -59t-104 -22q-66 0 -121 22t-91 64z" />
<glyph unicode="t" horiz-adv-x="306" d="M60 111l65 294h-80l18 78h80l29 132h90l-29 -132h98l-18 -78h-98l-60 -274q-2 -10 -2 -19q0 -44 48 -44q11 0 23.5 4t19.5 10l7 -72q-28 -22 -74 -22q-57 0 -88.5 23t-31.5 70q0 14 3 30z" />
<glyph unicode="u" horiz-adv-x="559" d="M146 174q-5 -22 -5 -33q0 -37 26 -55t69 -18q36 0 72.5 20.5t66.5 50.5l76 344h90l-107 -483h-90l15 68q-84 -80 -168 -80q-66 0 -106 32t-40 89q0 9 1.5 20t4.5 20l74 334h90z" />
<glyph unicode="v" horiz-adv-x="497" d="M54 483h93l66 -379l236 379h100l-306 -483h-97z" />
<glyph unicode="w" horiz-adv-x="744" d="M400 371l-201 -371h-93l-45 483h91l27 -368l203 368h79l39 -368l191 368h98l-259 -483h-93z" />
<glyph unicode="x" horiz-adv-x="491" d="M237 188l-177 -188h-106l235 248l-117 235h98l86 -174l163 174h106l-224 -235l128 -248h-99z" />
<glyph unicode="y" horiz-adv-x="497" d="M32 -114q20 0 35.5 10t32.5 35l43 66l-89 486h93l66 -379l236 379h100l-366 -575q-35 -55 -72.5 -79.5t-88.5 -24.5q-39 0 -69 11l31 80q20 -9 48 -9z" />
<glyph unicode="z" horiz-adv-x="474" d="M9 69l323 335h-247l17 79h371l-14 -67l-326 -338h254l-17 -78h-375z" />
<glyph unicode="{" horiz-adv-x="268" d="M23.5 -158q-35.5 32 -35.5 81q0 14 3 28l44 196q2 12 2 17q0 23 -10.5 37.5t-28.5 14.5l13 56q27 0 43.5 19t23.5 50l43 195q16 71 59 106.5t106 35.5h61l-14 -64h-61q-32 0 -53 -20t-29 -58l-48 -210q-16 -73 -65 -89q29 -15 29 -55q0 -18 -4 -34l-43 -196 q-2 -12 -2 -21q0 -25 16.5 -41t40.5 -16h55l-15 -64h-47q-48 0 -83.5 32z" />
<glyph unicode="|" horiz-adv-x="212" d="M94 687h64v-707h-64v707z" />
<glyph unicode="}" horiz-adv-x="268" d="M243.5 646q35.5 -32 35.5 -81q0 -17 -3 -29l-44 -195q-2 -12 -2 -18q0 -22 10.5 -36.5t28.5 -14.5l-13 -56q-27 0 -43.5 -19t-23.5 -50l-43 -195q-16 -71 -59 -106.5t-106 -35.5h-61l14 64h61q32 0 53.5 20t29.5 57l47 211q16 73 65 89q-29 15 -29 55q0 18 4 34l43 196 q2 12 2 20q0 25 -16 41.5t-41 16.5h-55l15 64h47q48 0 83.5 -32z" />
<glyph unicode="~" horiz-adv-x="505" d="M388 420q-37 0 -57 16t-28 39t-13 59q-7 38 -15 55t-31 17q-34 0 -64.5 -52t-49.5 -135l-63 8q22 105 66 172t115 67q37 0 57 -16t27.5 -38t14.5 -60q5 -37 13.5 -55t31.5 -18q34 0 65 52.5t49 135.5l64 -8q-56 -239 -182 -239z" />
<glyph unicode="&#xa1;" horiz-adv-x="238" d="M201.5 388.5q-20.5 -19.5 -48.5 -19.5q-24 0 -40.5 16.5t-16.5 40.5q0 28 20.5 48t47.5 20q25 0 41.5 -17t16.5 -41q0 -28 -20.5 -47.5zM79 -184h-111l121 471h77z" />
<glyph unicode="&#xa2;" horiz-adv-x="496" d="M337.5 84q28.5 14 50.5 39l50 -61q-71 -74 -178 -74l-20 -88h-69l22 96q-72 18 -114 73t-42 136q0 77 35.5 143t96.5 105.5t135 41.5l15 70h69l-18 -76q87 -19 126 -86l-68 -51q-25 42 -75 57l-76 -340q32 1 60.5 15zM151 126q22 -33 60 -47l74 334q-47 -7 -82.5 -36.5 t-54.5 -74.5t-19 -95q0 -48 22 -81z" />
<glyph unicode="&#xa3;" horiz-adv-x="527" d="M446 115l24 -80q-51 -48 -119 -48q-31 0 -55.5 6t-60.5 19q-32 10 -52 15t-44 5q-48 0 -114 -39l-19 72q69 29 115 80t46 104q0 13 -1 19h-141l14 62h104q-1 3 -11 20q-19 34 -28.5 57.5t-9.5 53.5q0 58 33.5 107.5t90.5 79t125 29.5q77 0 137 -33.5t77 -90.5l-90 -38 q-8 35 -41.5 57t-78.5 22q-39 0 -72 -17.5t-52.5 -50t-19.5 -74.5q0 -24 7 -42.5t22 -47.5q10 -17 17 -32h145l-14 -62h-118q0 -48 -32.5 -93t-72.5 -68q24 7 46 7t40.5 -5t40.5 -15q25 -9 40.5 -13.5t33.5 -4.5q49 0 88 39z" />
<glyph unicode="&#xa4;" horiz-adv-x="605" d="M573 362q0 -54 -20 -102.5t-57 -85.5l56 -70l-62 -49l-56 71q-60 -33 -129 -33q-92 0 -153 47l-99 -80l-49 61l97 78q-25 45 -25 102q0 55 19.5 104t55.5 85l-57 74l62 49l58 -74q60 33 130 33q91 0 154 -49l98 80l48 -59l-97 -78q26 -46 26 -104zM204.5 212.5 q36.5 -38.5 104.5 -38.5q48 0 87 25.5t61.5 67t22.5 88.5q0 58 -36.5 96.5t-105.5 38.5q-49 0 -88 -25.5t-60.5 -67.5t-21.5 -89q0 -57 36.5 -95.5z" />
<glyph unicode="&#xa5;" horiz-adv-x="632" d="M429 339h202l-14 -60h-241l-22 -99h241l-14 -60h-240l-27 -120h-100l27 120h-247l14 60h246l22 99h-246l13 60h206l-149 328h109l131 -298l259 298h122z" />
<glyph unicode="&#xa6;" horiz-adv-x="212" d="M94 687h64v-316h-64v316zM94 296h64v-316h-64v316z" />
<glyph unicode="&#xa7;" horiz-adv-x="472" d="M374 135q15 -25 15 -57q0 -42 -23.5 -78.5t-67 -58.5t-101.5 -22q-71 0 -128 21t-93 60l55 55q25 -33 69.5 -52t95.5 -19q46 0 74.5 23.5t28.5 58.5q0 28 -25 44t-78 36q-48 18 -76 32.5t-48.5 40t-20.5 63.5q0 50 36 87.5t104 50.5q-86 35 -86 108q0 40 23 74t65 54.5 t98 20.5q67 0 117.5 -19.5t82.5 -54.5l-51 -50q-23 29 -63 44t-83 15q-45 0 -72.5 -21t-27.5 -52q0 -28 25.5 -44t78.5 -34q47 -17 76 -31.5t49.5 -40t20.5 -64.5q0 -49 -31.5 -88.5t-89.5 -56.5q36 -20 51 -45zM172.5 355.5q-31.5 -24.5 -31.5 -57.5q0 -32 27 -50.5 t85 -38.5q51 14 75 40.5t24 56.5t-23 49t-64 33q-61 -8 -92.5 -32.5z" />
<glyph unicode="&#xa8;" horiz-adv-x="416" d="M148 579q-14 14 -14 33q0 23 18 40.5t41 17.5q20 0 33.5 -13.5t13.5 -33.5q0 -23 -18 -40.5t-41 -17.5q-19 0 -33 14zM356 579q-14 14 -14 33q0 23 18 40.5t41 17.5q20 0 33.5 -13.5t13.5 -33.5q0 -23 -18 -40.5t-41 -17.5q-19 0 -33 14z" />
<glyph unicode="&#xa9;" horiz-adv-x="778" d="M236 35.5q-79 46.5 -125.5 126t-46.5 172.5q0 94 46.5 173t125.5 125.5t172 46.5q94 0 173.5 -46.5t126 -125.5t46.5 -173q0 -93 -46.5 -172.5t-126 -126t-173.5 -46.5q-93 0 -172 46.5zM251.5 604.5q-71.5 -42.5 -113.5 -114t-42 -156.5t42 -156.5t113.5 -114 t156.5 -42.5t157 42.5t114.5 114t42.5 156.5t-42.5 156.5t-114.5 114t-157 42.5t-156.5 -42.5zM390 121q-58 0 -101 24.5t-66.5 67t-23.5 94.5q0 66 33.5 121.5t87.5 87t114 31.5q52 0 92.5 -20t64.5 -60l-33 -24q-18 34 -50.5 51.5t-75.5 17.5q-47 0 -91.5 -27t-73 -73.5 t-28.5 -103.5q0 -41 18.5 -76t53 -55.5t80.5 -20.5q31 0 62 13.5t53 34.5l20 -30q-64 -53 -136 -53z" />
<glyph unicode="&#xaa;" horiz-adv-x="411" d="M371 326h-68l10 44q-23 -27 -48 -39.5t-56 -12.5q-53 0 -89 35t-36 99q0 52 22.5 97.5t61 72t85.5 26.5q37 0 65.5 -13.5t45.5 -38.5l9 44h68zM177 394.5q22 -22.5 59 -22.5q49 0 88 45l31 137q-12 18 -36 29t-51 11q-31 0 -57 -18.5t-41 -49.5t-15 -67q0 -42 22 -64.5z " />
<glyph unicode="&#xab;" horiz-adv-x="464" d="M29 243l200 177h91l-204 -182l116 -175h-83zM186 243l200 177h91l-204 -182l116 -175h-83z" />
<glyph unicode="&#xac;" horiz-adv-x="507" d="M401 208l42 192h-380l13 60h443l-56 -252h-62z" />
<glyph unicode="&#xad;" horiz-adv-x="300" d="M38 281h240l-18 -78h-240z" />
<glyph unicode="&#xae;" horiz-adv-x="494" d="M189 281.5q-48 28.5 -76.5 77t-28.5 106.5t28.5 106.5t77 77t106.5 28.5t106.5 -28.5t77 -77t28.5 -106.5t-28.5 -106.5t-77.5 -77t-107 -28.5t-106 28.5zM203.5 623q-41.5 -24 -66 -66t-24.5 -92q0 -49 24.5 -91t66 -67t91.5 -25t92 25t66.5 67t24.5 91q0 50 -24.5 92 t-66.5 66t-92 24t-91.5 -24zM287 439h-46l-21 -96h-32l53 243h92q30 0 50 -17.5t20 -46.5q0 -35 -25 -58.5t-55 -23.5l44 -97h-38zM267 557l-20 -88h67q24 0 39.5 14.5t15.5 35.5q0 18 -11.5 28t-30.5 10h-60z" />
<glyph unicode="&#xaf;" horiz-adv-x="363" d="M110 624h315l-13 -55h-315z" />
<glyph unicode="&#xb0;" horiz-adv-x="296" d="M126.5 462.5q-36.5 36.5 -36.5 88.5q0 34 17 63t45.5 46t62.5 17t63 -17t46 -46t17 -63q0 -52 -36.5 -88.5t-89.5 -36.5q-52 0 -88.5 36.5zM165.5 601.5q-20.5 -21.5 -20.5 -50.5t20 -50t49 -21t51 21t22 50t-21.5 50.5t-50.5 21.5t-49.5 -21.5z" />
<glyph unicode="&#xb1;" horiz-adv-x="500" d="M253 114h-65l46 210h-188l13 60h189l45 204h66l-46 -204h189l-14 -60h-188zM-13 60h443l-13 -60h-442z" />
<glyph unicode="&#xb2;" horiz-adv-x="390" d="M101 477q105 62 160.5 99t85 70t29.5 65q0 28 -23 43.5t-57 15.5q-33 0 -63 -12.5t-49 -33.5l-32 47q28 27 66 41.5t80 14.5q63 0 106.5 -28.5t43.5 -82.5q0 -58 -61.5 -113t-181.5 -125h193l-12 -57h-298z" />
<glyph unicode="&#xb3;" horiz-adv-x="390" d="M162.5 433q-43.5 19 -64.5 54l45 41q20 -28 50.5 -42.5t66.5 -14.5q38 0 60 20.5t22 51.5q0 25 -26 39.5t-70 14.5q-25 0 -31 -1l13 58q24 -2 61 -2q41 0 63.5 16.5t22.5 45.5q0 26 -26 41t-63 15q-58 0 -106 -41l-26 45q27 23 64 38t74 15q68 0 111.5 -27.5t43.5 -76.5 q0 -42 -30.5 -70t-81.5 -32q33 -7 55.5 -30t22.5 -56q0 -31 -18 -58.5t-52 -45t-80 -17.5q-57 0 -100.5 19z" />
<glyph unicode="&#xb4;" d="M67 556l176 144h91l-199 -144h-68z" />
<glyph unicode="&#xb5;" horiz-adv-x="572" d="M-26 -184l151 667h90l-70 -310q-4 -16 -4 -32q0 -37 23 -55.5t61 -18.5q39 0 79.5 20t67.5 49l77 347h90l-80 -361q-2 -12 -2 -18q0 -17 9 -26.5t26 -9.5q10 0 20 2l-11 -77q-20 -5 -46 -5q-94 0 -92 86q-35 -38 -79.5 -62t-88.5 -24q-31 0 -52 11t-31 31l-48 -214h-90z " />
<glyph unicode="&#xb6;" horiz-adv-x="449" d="M417 617h-86l-159 -717h-50l94 423q-37 0 -68.5 20t-50 56t-18.5 80q0 47 25.5 90.5t70 70.5t98.5 27h205l-170 -767h-50z" />
<glyph unicode="&#xb7;" horiz-adv-x="238" d="M76 287.5q20 19.5 49 19.5q23 0 39.5 -16.5t16.5 -41.5q0 -27 -20 -47t-48 -20q-24 0 -40.5 17t-16.5 41q0 28 20 47.5z" />
<glyph unicode="&#xb8;" horiz-adv-x="209" d="M-60 -114q16 -17 38.5 -26t44.5 -9q28 0 43.5 12t15.5 31q0 13 -9.5 20.5t-25.5 7.5q-21 0 -34 -15l-32 21l49 83h50l-40 -65q15 11 33 11q26 0 42 -16t16 -44q0 -40 -30.5 -65t-78.5 -25q-35 0 -64 11t-47 29z" />
<glyph unicode="&#xb9;" horiz-adv-x="250" d="M225 726l-80 -66l-32 44l142 117h62l-88 -400h-71z" />
<glyph unicode="&#xba;" horiz-adv-x="405" d="M108 555q25 43 67 68t92 25q70 0 112 -40t42 -104q0 -51 -25 -93.5t-67.5 -67.5t-92.5 -25q-69 0 -111 39.5t-42 103.5q0 51 25 94zM327.5 567q-23.5 24 -61.5 24q-51 0 -82 -39.5t-31 -91.5q0 -39 23 -62.5t62 -23.5q51 0 82 39.5t31 91.5q0 38 -23.5 62z" />
<glyph unicode="&#xbb;" horiz-adv-x="464" d="M280 240l-200 -177h-91l204 182l-116 175h83zM437 240l-200 -177h-91l204 182l-116 175h83z" />
<glyph unicode="&#xbc;" horiz-adv-x="764" d="M191 572l-80 -66l-32 44l142 117h62l-88 -400h-71zM54 0l573 667h62l-574 -667h-61zM622 0h-70l21 96h-196l10 50l225 254h98l-55 -247h56l-12 -57h-56zM460 153h125l41 182z" />
<glyph unicode="&#xbd;" horiz-adv-x="814" d="M191 572l-80 -66l-32 44l142 117h62l-88 -400h-71zM54 0l573 667h62l-574 -667h-61zM432 56q105 62 160.5 99t85 70t29.5 65q0 28 -23 43.5t-57 15.5q-33 0 -63 -12.5t-49 -33.5l-32 47q28 27 66 41.5t80 14.5q63 0 106.5 -28.5t43.5 -82.5q0 -58 -61.5 -113t-181.5 -125 h193l-12 -57h-298z" />
<glyph unicode="&#xbe;" horiz-adv-x="874" d="M128.5 279q-43.5 19 -64.5 54l45 41q20 -28 50.5 -42.5t66.5 -14.5q38 0 60 20.5t22 51.5q0 25 -26 39.5t-70 14.5q-25 0 -31 -1l13 58q24 -2 61 -2q41 0 63.5 16.5t22.5 45.5q0 26 -26 41t-63 15q-58 0 -106 -41l-26 45q27 23 64 38t74 15q68 0 111.5 -27.5t43.5 -76.5 q0 -42 -30.5 -70t-81.5 -32q33 -7 55.5 -30t22.5 -56q0 -31 -18 -58.5t-52 -45t-80 -17.5q-57 0 -100.5 19zM164 0l573 667h62l-574 -667h-61zM732 0h-70l21 96h-196l10 50l225 254h98l-55 -247h56l-12 -57h-56zM570 153h125l41 182z" />
<glyph unicode="&#xbf;" horiz-adv-x="395" d="M319 388q-20 -20 -48 -20q-24 0 -40.5 17t-16.5 41q0 28 20 47.5t48 19.5q24 0 40.5 -17t16.5 -40q0 -28 -20 -48zM296 221q0 -36 -17 -62t-41.5 -42.5t-64.5 -38.5q-51 -26 -76.5 -49t-25.5 -58t29 -56t82 -21q40 0 77 15t67 44l43 -68q-87 -80 -201 -80 q-58 0 -104.5 18t-73 51.5t-26.5 77.5q0 46 20.5 78.5t48.5 52.5t75 45q53 28 77 48t24 52q0 8 -3.5 18t-11.5 18l81 28q21 -31 21 -71z" />
<glyph unicode="&#xc0;" horiz-adv-x="666" d="M477 138h-327l-84 -138h-115l412 667h125l118 -667h-105zM199 227h269l-57 350zM271 867h89l112 -144h-66z" />
<glyph unicode="&#xc1;" horiz-adv-x="666" d="M477 138h-327l-84 -138h-115l412 667h125l118 -667h-105zM199 227h269l-57 350zM403 723l176 144h91l-199 -144h-68z" />
<glyph unicode="&#xc2;" horiz-adv-x="666" d="M477 138h-327l-84 -138h-115l412 667h125l118 -667h-105zM199 227h269l-57 350zM463 824l-100 -101h-60l126 144h84l65 -144h-57z" />
<glyph unicode="&#xc3;" horiz-adv-x="666" d="M477 138h-327l-84 -138h-115l412 667h125l118 -667h-105zM199 227h269l-57 350zM416.5 796.5q-10.5 9.5 -26.5 9.5q-40 0 -57 -79h-52q27 134 115 134q27 0 41.5 -12t30.5 -35q11 -19 21.5 -28.5t26.5 -9.5q38 0 57 79h53q-28 -134 -116 -134q-27 0 -41.5 12t-30.5 35 q-11 19 -21.5 28.5z" />
<glyph unicode="&#xc4;" horiz-adv-x="666" d="M477 138h-327l-84 -138h-115l412 667h125l118 -667h-105zM199 227h269l-57 350zM311.5 746q-13.5 14 -13.5 33q0 23 18 40.5t41 17.5q20 0 33.5 -13.5t13.5 -33.5q0 -23 -18 -40.5t-41 -17.5q-20 0 -33.5 14zM519.5 746q-13.5 14 -13.5 33q0 23 18 40.5t41 17.5 q20 0 33.5 -13.5t13.5 -33.5q0 -23 -18 -40.5t-41 -17.5q-20 0 -33.5 14z" />
<glyph unicode="&#xc5;" horiz-adv-x="666" d="M477 138h-327l-84 -138h-115l412 667h125l118 -667h-105zM199 227h269l-57 350zM391 875q33 33 77 33q41 0 66.5 -25.5t25.5 -66.5q0 -44 -33 -77t-77 -33q-41 0 -66.5 26t-25.5 66q0 44 33 77zM500.5 848.5q-13.5 13.5 -35.5 13.5q-24 0 -42.5 -18t-18.5 -42 q0 -22 13.5 -36t35.5 -14q25 0 43 17.5t18 42.5q0 23 -13.5 36.5z" />
<glyph unicode="&#xc6;" horiz-adv-x="953" d="M432 138h-255l-115 -138h-113l560 667h487l-20 -88h-347l-43 -195h340l-20 -88h-340l-46 -208h347l-18 -88h-448zM245 227h206l76 349z" />
<glyph unicode="&#xc7;" horiz-adv-x="679" d="M466 97q45 20 81 56l76 -54q-52 -57 -118.5 -84t-135.5 -27q-19 0 -28 1l-26 -43q15 11 33 11q26 0 42 -16t16 -44q0 -40 -30.5 -65t-78.5 -25q-35 0 -64 11t-47 29l29 39q16 -17 38.5 -26t44.5 -9q28 0 43.5 12t15.5 31q0 13 -9.5 20.5t-25.5 7.5q-20 0 -34 -15l-32 21 l39 67q-70 14 -124 53t-84.5 99t-30.5 135q0 116 52.5 206t139.5 140t186 50q102 0 173 -45t106 -121l-95 -36q-26 56 -76 84.5t-113 28.5q-70 0 -132 -38.5t-99.5 -107t-37.5 -155.5q0 -62 26.5 -110t75 -74.5t113.5 -26.5q46 0 91 20z" />
<glyph unicode="&#xc8;" horiz-adv-x="573" d="M167 667h448l-20 -88h-347l-43 -195h340l-20 -88h-340l-46 -208h347l-18 -88h-448zM242 867h89l112 -144h-66z" />
<glyph unicode="&#xc9;" horiz-adv-x="573" d="M167 667h448l-20 -88h-347l-43 -195h340l-20 -88h-340l-46 -208h347l-18 -88h-448zM374 723l176 144h91l-199 -144h-68z" />
<glyph unicode="&#xca;" horiz-adv-x="573" d="M167 667h448l-20 -88h-347l-43 -195h340l-20 -88h-340l-46 -208h347l-18 -88h-448zM434 824l-100 -101h-60l126 144h84l65 -144h-57z" />
<glyph unicode="&#xcb;" horiz-adv-x="573" d="M167 667h448l-20 -88h-347l-43 -195h340l-20 -88h-340l-46 -208h347l-18 -88h-448zM282.5 746q-13.5 14 -13.5 33q0 23 18 40.5t41 17.5q20 0 33.5 -13.5t13.5 -33.5q0 -23 -18 -40.5t-41 -17.5q-20 0 -33.5 14zM490.5 746q-13.5 14 -13.5 33q0 23 18 40.5t41 17.5 q20 0 33.5 -13.5t13.5 -33.5q0 -23 -18 -40.5t-41 -17.5q-20 0 -33.5 14z" />
<glyph unicode="&#xcc;" horiz-adv-x="249" d="M167 667h100l-147 -667h-100zM63 867h89l112 -144h-66z" />
<glyph unicode="&#xcd;" horiz-adv-x="249" d="M167 667h100l-147 -667h-100zM195 723l176 144h91l-199 -144h-68z" />
<glyph unicode="&#xce;" horiz-adv-x="249" d="M167 667h100l-147 -667h-100zM255 824l-100 -101h-60l126 144h84l65 -144h-57z" />
<glyph unicode="&#xcf;" horiz-adv-x="249" d="M167 667h100l-147 -667h-100zM103.5 746q-13.5 14 -13.5 33q0 23 18 40.5t41 17.5q20 0 33.5 -13.5t13.5 -33.5q0 -23 -18 -40.5t-41 -17.5q-20 0 -33.5 14zM311.5 746q-13.5 14 -13.5 33q0 23 18 40.5t41 17.5q20 0 33.5 -13.5t13.5 -33.5q0 -23 -18 -40.5t-41 -17.5 q-20 0 -33.5 14z" />
<glyph unicode="&#xd0;" horiz-adv-x="732" d="M566 630.5q65 -36.5 103.5 -101.5t38.5 -147q0 -96 -46 -183.5t-141.5 -143t-236.5 -55.5h-237l65 293h-92l18 82h92l64 292h233q74 0 139 -36.5zM460.5 127q68.5 39 105.5 105t37 144q0 57 -25 103.5t-69.5 73t-99.5 26.5h-134l-45 -204h163l-18 -82h-164l-45 -205h136 q90 0 158.5 39z" />
<glyph unicode="&#xd1;" horiz-adv-x="714" d="M238 535l-118 -535h-100l147 667h103l247 -523l116 523h100l-147 -667h-97zM440.5 796.5q-10.5 9.5 -26.5 9.5q-40 0 -57 -79h-52q27 134 115 134q27 0 41.5 -12t30.5 -35q11 -19 21.5 -28.5t26.5 -9.5q38 0 57 79h53q-28 -134 -116 -134q-27 0 -41.5 12t-30.5 35 q-11 19 -21.5 28.5z" />
<glyph unicode="&#xd2;" horiz-adv-x="765" d="M106 482q50 91 137 143.5t191 52.5q88 0 159.5 -35.5t112.5 -101.5t41 -156q0 -110 -50 -201t-137 -143.5t-191 -52.5q-88 0 -159.5 35.5t-112.5 102t-41 156.5q0 109 50 200zM614.5 491q-28.5 48 -77.5 73t-109 25q-72 0 -133.5 -39.5t-98 -108.5t-36.5 -153 q0 -66 28.5 -113.5t77 -72.5t109.5 -25q72 0 133.5 39.5t98 108.5t36.5 153q0 65 -28.5 113zM318 867h89l112 -144h-66z" />
<glyph unicode="&#xd3;" horiz-adv-x="765" d="M106 482q50 91 137 143.5t191 52.5q88 0 159.5 -35.5t112.5 -101.5t41 -156q0 -110 -50 -201t-137 -143.5t-191 -52.5q-88 0 -159.5 35.5t-112.5 102t-41 156.5q0 109 50 200zM614.5 491q-28.5 48 -77.5 73t-109 25q-72 0 -133.5 -39.5t-98 -108.5t-36.5 -153 q0 -66 28.5 -113.5t77 -72.5t109.5 -25q72 0 133.5 39.5t98 108.5t36.5 153q0 65 -28.5 113zM450 723l176 144h91l-199 -144h-68z" />
<glyph unicode="&#xd4;" horiz-adv-x="765" d="M106 482q50 91 137 143.5t191 52.5q88 0 159.5 -35.5t112.5 -101.5t41 -156q0 -110 -50 -201t-137 -143.5t-191 -52.5q-88 0 -159.5 35.5t-112.5 102t-41 156.5q0 109 50 200zM614.5 491q-28.5 48 -77.5 73t-109 25q-72 0 -133.5 -39.5t-98 -108.5t-36.5 -153 q0 -66 28.5 -113.5t77 -72.5t109.5 -25q72 0 133.5 39.5t98 108.5t36.5 153q0 65 -28.5 113zM510 824l-100 -101h-60l126 144h84l65 -144h-57z" />
<glyph unicode="&#xd5;" horiz-adv-x="765" d="M106 482q50 91 137 143.5t191 52.5q88 0 159.5 -35.5t112.5 -101.5t41 -156q0 -110 -50 -201t-137 -143.5t-191 -52.5q-88 0 -159.5 35.5t-112.5 102t-41 156.5q0 109 50 200zM614.5 491q-28.5 48 -77.5 73t-109 25q-72 0 -133.5 -39.5t-98 -108.5t-36.5 -153 q0 -66 28.5 -113.5t77 -72.5t109.5 -25q72 0 133.5 39.5t98 108.5t36.5 153q0 65 -28.5 113zM463.5 796.5q-10.5 9.5 -26.5 9.5q-40 0 -57 -79h-52q27 134 115 134q27 0 41.5 -12t30.5 -35q11 -19 21.5 -28.5t26.5 -9.5q38 0 57 79h53q-28 -134 -116 -134q-27 0 -41.5 12 t-30.5 35q-11 19 -21.5 28.5z" />
<glyph unicode="&#xd6;" horiz-adv-x="765" d="M106 482q50 91 137 143.5t191 52.5q88 0 159.5 -35.5t112.5 -101.5t41 -156q0 -110 -50 -201t-137 -143.5t-191 -52.5q-88 0 -159.5 35.5t-112.5 102t-41 156.5q0 109 50 200zM614.5 491q-28.5 48 -77.5 73t-109 25q-72 0 -133.5 -39.5t-98 -108.5t-36.5 -153 q0 -66 28.5 -113.5t77 -72.5t109.5 -25q72 0 133.5 39.5t98 108.5t36.5 153q0 65 -28.5 113zM358.5 746q-13.5 14 -13.5 33q0 23 18 40.5t41 17.5q20 0 33.5 -13.5t13.5 -33.5q0 -23 -18 -40.5t-41 -17.5q-20 0 -33.5 14zM566.5 746q-13.5 14 -13.5 33q0 23 18 40.5t41 17.5 q20 0 33.5 -13.5t13.5 -33.5q0 -23 -18 -40.5t-41 -17.5q-20 0 -33.5 14z" />
<glyph unicode="&#xd7;" horiz-adv-x="500" d="M84 143l-38 46l182 149l-112 144l48 39l111 -144l181 148l37 -47l-181 -148l112 -145l-47 -38l-113 144z" />
<glyph unicode="&#xd8;" horiz-adv-x="765" d="M747 385q0 -110 -50 -201t-137 -143.5t-191 -52.5q-116 0 -198 58l-42 -46h-77l77 83q-73 79 -73 199q0 109 50 200t137 143.5t191 52.5q110 0 192 -54l39 43h77l-73 -79q78 -80 78 -203zM198 159l360 392q-55 38 -130 38q-72 0 -133.5 -39.5t-98 -108.5t-36.5 -153 q0 -75 38 -129zM508.5 116.5q61.5 39.5 98 108.5t36.5 153q0 80 -43 134l-362 -393q56 -42 137 -42q72 0 133.5 39.5z" />
<glyph unicode="&#xd9;" horiz-adv-x="710" d="M143 49q-68 61 -68 164q0 36 6 63l86 391h101l-85 -388q-7 -32 -7 -57q0 -66 43 -106t119 -40q86 0 133 48t67 139l89 404h101l-89 -405q-29 -133 -99.5 -203.5t-206.5 -70.5q-122 0 -190 61zM292 867h89l112 -144h-66z" />
<glyph unicode="&#xda;" horiz-adv-x="710" d="M143 49q-68 61 -68 164q0 36 6 63l86 391h101l-85 -388q-7 -32 -7 -57q0 -66 43 -106t119 -40q86 0 133 48t67 139l89 404h101l-89 -405q-29 -133 -99.5 -203.5t-206.5 -70.5q-122 0 -190 61zM424 723l176 144h91l-199 -144h-68z" />
<glyph unicode="&#xdb;" horiz-adv-x="710" d="M143 49q-68 61 -68 164q0 36 6 63l86 391h101l-85 -388q-7 -32 -7 -57q0 -66 43 -106t119 -40q86 0 133 48t67 139l89 404h101l-89 -405q-29 -133 -99.5 -203.5t-206.5 -70.5q-122 0 -190 61zM484 824l-100 -101h-60l126 144h84l65 -144h-57z" />
<glyph unicode="&#xdc;" horiz-adv-x="710" d="M143 49q-68 61 -68 164q0 36 6 63l86 391h101l-85 -388q-7 -32 -7 -57q0 -66 43 -106t119 -40q86 0 133 48t67 139l89 404h101l-89 -405q-29 -133 -99.5 -203.5t-206.5 -70.5q-122 0 -190 61zM332.5 746q-13.5 14 -13.5 33q0 23 18 40.5t41 17.5q20 0 33.5 -13.5 t13.5 -33.5q0 -23 -18 -40.5t-41 -17.5q-20 0 -33.5 14zM540.5 746q-13.5 14 -13.5 33q0 23 18 40.5t41 17.5q20 0 33.5 -13.5t13.5 -33.5q0 -23 -18 -40.5t-41 -17.5q-20 0 -33.5 14z" />
<glyph unicode="&#xdd;" horiz-adv-x="632" d="M273 279l-175 388h109l130 -298l260 298h122l-346 -388l-61 -279h-100zM386 723l176 144h91l-199 -144h-68z" />
<glyph unicode="&#xde;" horiz-adv-x="597" d="M167 667h100l-25 -116h171q50 0 90.5 -24t64 -64t23.5 -88q0 -57 -27.5 -110.5t-86 -88t-146.5 -34.5h-180l-31 -142h-100zM457 434.5q-30 27.5 -73 27.5h-162l-51 -232h166q71 0 110.5 40t39.5 96q0 41 -30 68.5z" />
<glyph unicode="&#xdf;" horiz-adv-x="610" d="M263.5 9q-48.5 21 -89.5 68l55 58q59 -74 155 -74q46 0 72.5 23t26.5 54q0 24 -23 38t-72 31q-46 16 -72.5 29t-46.5 36.5t-20 59.5q0 37 16 62.5t38.5 40.5t58.5 34q38 20 54 33t16 33q0 28 -27.5 45t-65.5 17q-46 0 -79 -28t-44 -77l-108 -492h-90l108 492 q18 82 74 133.5t142 51.5q46 0 89 -16t69.5 -45t26.5 -66q0 -49 -29 -76t-81 -52q-41 -21 -60 -36.5t-19 -40.5q0 -22 22 -35t70 -31q45 -16 73.5 -30t49 -38.5t20.5 -62.5q0 -41 -23 -78t-66.5 -59.5t-102.5 -22.5q-69 0 -117.5 21z" />
<glyph unicode="&#xe0;" horiz-adv-x="578" d="M469 483h90l-107 -483h-90l15 67q-63 -79 -155 -79q-84 0 -135 52.5t-51 146.5q0 79 31 149.5t89 114.5t134 44q53 0 96 -22.5t68 -62.5zM165.5 105q34.5 -37 91.5 -37q40 0 77 21.5t60 53.5l45 200q-18 32 -54 52t-83 20q-49 0 -88 -29.5t-61 -78t-22 -103.5 q0 -62 34.5 -99zM192 700h89l112 -144h-66z" />
<glyph unicode="&#xe1;" horiz-adv-x="578" d="M469 483h90l-107 -483h-90l15 67q-63 -79 -155 -79q-84 0 -135 52.5t-51 146.5q0 79 31 149.5t89 114.5t134 44q53 0 96 -22.5t68 -62.5zM165.5 105q34.5 -37 91.5 -37q40 0 77 21.5t60 53.5l45 200q-18 32 -54 52t-83 20q-49 0 -88 -29.5t-61 -78t-22 -103.5 q0 -62 34.5 -99zM324 556l176 144h91l-199 -144h-68z" />
<glyph unicode="&#xe2;" horiz-adv-x="578" d="M469 483h90l-107 -483h-90l15 67q-63 -79 -155 -79q-84 0 -135 52.5t-51 146.5q0 79 31 149.5t89 114.5t134 44q53 0 96 -22.5t68 -62.5zM165.5 105q34.5 -37 91.5 -37q40 0 77 21.5t60 53.5l45 200q-18 32 -54 52t-83 20q-49 0 -88 -29.5t-61 -78t-22 -103.5 q0 -62 34.5 -99zM384 657l-100 -101h-60l126 144h84l65 -144h-57z" />
<glyph unicode="&#xe3;" horiz-adv-x="578" d="M469 483h90l-107 -483h-90l15 67q-63 -79 -155 -79q-84 0 -135 52.5t-51 146.5q0 79 31 149.5t89 114.5t134 44q53 0 96 -22.5t68 -62.5zM165.5 105q34.5 -37 91.5 -37q40 0 77 21.5t60 53.5l45 200q-18 32 -54 52t-83 20q-49 0 -88 -29.5t-61 -78t-22 -103.5 q0 -62 34.5 -99zM337.5 629.5q-10.5 9.5 -26.5 9.5q-40 0 -57 -79h-52q27 134 115 134q27 0 41.5 -12t30.5 -35q11 -19 21.5 -28.5t26.5 -9.5q38 0 57 79h53q-28 -134 -116 -134q-27 0 -41.5 12t-30.5 35q-11 19 -21.5 28.5z" />
<glyph unicode="&#xe4;" horiz-adv-x="578" d="M469 483h90l-107 -483h-90l15 67q-63 -79 -155 -79q-84 0 -135 52.5t-51 146.5q0 79 31 149.5t89 114.5t134 44q53 0 96 -22.5t68 -62.5zM165.5 105q34.5 -37 91.5 -37q40 0 77 21.5t60 53.5l45 200q-18 32 -54 52t-83 20q-49 0 -88 -29.5t-61 -78t-22 -103.5 q0 -62 34.5 -99zM232.5 579q-13.5 14 -13.5 33q0 23 18 40.5t41 17.5q20 0 33.5 -13.5t13.5 -33.5q0 -23 -18 -40.5t-41 -17.5q-20 0 -33.5 14zM440.5 579q-13.5 14 -13.5 33q0 23 18 40.5t41 17.5q20 0 33.5 -13.5t13.5 -33.5q0 -23 -18 -40.5t-41 -17.5q-20 0 -33.5 14z " />
<glyph unicode="&#xe5;" horiz-adv-x="578" d="M469 483h90l-107 -483h-90l15 67q-63 -79 -155 -79q-84 0 -135 52.5t-51 146.5q0 79 31 149.5t89 114.5t134 44q53 0 96 -22.5t68 -62.5zM165.5 105q34.5 -37 91.5 -37q40 0 77 21.5t60 53.5l45 200q-18 32 -54 52t-83 20q-49 0 -88 -29.5t-61 -78t-22 -103.5 q0 -62 34.5 -99zM312 708q33 33 77 33q41 0 66.5 -25.5t25.5 -66.5q0 -44 -33 -77t-77 -33q-41 0 -66.5 26t-25.5 66q0 44 33 77zM421.5 681.5q-13.5 13.5 -35.5 13.5q-24 0 -42.5 -18t-18.5 -42q0 -22 13.5 -36t35.5 -14q25 0 43 17.5t18 42.5q0 23 -13.5 36.5z" />
<glyph unicode="&#xe6;" horiz-adv-x="931" d="M362 0l15 67q-63 -79 -155 -79q-84 0 -135 52.5t-51 146.5q0 79 31 149.5t89 114.5t134 44q53 0 96 -22.5t68 -62.5l15 73h90l-16 -76q30 37 73.5 62.5t94.5 25.5q88 0 135.5 -55t47.5 -152q0 -18 -3 -41.5t-6 -34.5h-381q-1 -4 -1 -20q0 -34 17.5 -63t52.5 -47t85 -18 q35 0 69 11.5t61 32.5l30 -65q-34 -25 -76 -40t-81 -15q-74 0 -120.5 32t-64.5 86l-24 -106h-90zM811 293q0 56 -34 92t-99 36q-40 0 -75 -20t-59 -53t-31 -71h297q1 3 1 16zM165.5 105q34.5 -37 91.5 -37q40 0 77 21.5t60 53.5l45 200q-18 32 -54 52t-83 20 q-49 0 -88 -29.5t-61 -78t-22 -103.5q0 -62 34.5 -99z" />
<glyph unicode="&#xe7;" horiz-adv-x="496" d="M336 83q30 15 52 40l50 -61q-70 -74 -175 -74h-10l-26 -42q15 11 33 11q26 0 42 -16t16 -44q0 -40 -30.5 -65t-78.5 -25q-35 0 -64 11t-47 29l29 39q16 -17 38.5 -26t44.5 -9q28 0 43.5 12t15.5 31q0 13 -9.5 20.5t-25.5 7.5q-20 0 -34 -15l-32 21l39 65q-78 16 -124 72 t-46 140q0 78 36.5 145t99 106t138.5 39q67 0 113 -24t72 -68l-68 -51q-17 30 -48 46.5t-68 16.5q-54 0 -96 -28.5t-64.5 -76.5t-22.5 -103q0 -66 40 -102.5t103 -36.5q34 0 64 15z" />
<glyph unicode="&#xe8;" horiz-adv-x="560" d="M73 349q36 67 98.5 106.5t138.5 39.5q63 0 110.5 -26.5t74 -75t26.5 -111.5q0 -17 -3 -37.5t-6 -32.5h-383q-2 -8 -2 -20q0 -34 18 -63.5t53 -48t85 -18.5q35 0 71.5 11.5t62.5 32.5l29 -63q-34 -25 -79 -40t-90 -15q-111 0 -175.5 58t-64.5 157q0 79 36 146zM440 293 q0 56 -36 92t-101 36q-40 0 -75.5 -20t-59 -53t-30.5 -71h301q1 3 1 16zM185 700h89l112 -144h-66z" />
<glyph unicode="&#xe9;" horiz-adv-x="560" d="M73 349q36 67 98.5 106.5t138.5 39.5q63 0 110.5 -26.5t74 -75t26.5 -111.5q0 -17 -3 -37.5t-6 -32.5h-383q-2 -8 -2 -20q0 -34 18 -63.5t53 -48t85 -18.5q35 0 71.5 11.5t62.5 32.5l29 -63q-34 -25 -79 -40t-90 -15q-111 0 -175.5 58t-64.5 157q0 79 36 146zM440 293 q0 56 -36 92t-101 36q-40 0 -75.5 -20t-59 -53t-30.5 -71h301q1 3 1 16zM317 556l176 144h91l-199 -144h-68z" />
<glyph unicode="&#xea;" horiz-adv-x="560" d="M73 349q36 67 98.5 106.5t138.5 39.5q63 0 110.5 -26.5t74 -75t26.5 -111.5q0 -17 -3 -37.5t-6 -32.5h-383q-2 -8 -2 -20q0 -34 18 -63.5t53 -48t85 -18.5q35 0 71.5 11.5t62.5 32.5l29 -63q-34 -25 -79 -40t-90 -15q-111 0 -175.5 58t-64.5 157q0 79 36 146zM440 293 q0 56 -36 92t-101 36q-40 0 -75.5 -20t-59 -53t-30.5 -71h301q1 3 1 16zM377 657l-100 -101h-60l126 144h84l65 -144h-57z" />
<glyph unicode="&#xeb;" horiz-adv-x="560" d="M73 349q36 67 98.5 106.5t138.5 39.5q63 0 110.5 -26.5t74 -75t26.5 -111.5q0 -17 -3 -37.5t-6 -32.5h-383q-2 -8 -2 -20q0 -34 18 -63.5t53 -48t85 -18.5q35 0 71.5 11.5t62.5 32.5l29 -63q-34 -25 -79 -40t-90 -15q-111 0 -175.5 58t-64.5 157q0 79 36 146zM440 293 q0 56 -36 92t-101 36q-40 0 -75.5 -20t-59 -53t-30.5 -71h301q1 3 1 16zM225.5 579q-13.5 14 -13.5 33q0 23 18 40.5t41 17.5q20 0 33.5 -13.5t13.5 -33.5q0 -23 -18 -40.5t-41 -17.5q-20 0 -33.5 14zM433.5 579q-13.5 14 -13.5 33q0 23 18 40.5t41 17.5q20 0 33.5 -13.5 t13.5 -33.5q0 -23 -18 -40.5t-41 -17.5q-20 0 -33.5 14z" />
<glyph unicode="&#xec;" d="M125 483h90l-107 -483h-90zM17 700h89l112 -144h-66z" />
<glyph unicode="&#xed;" d="M125 483h90l-107 -483h-90zM149 556l176 144h91l-199 -144h-68z" />
<glyph unicode="&#xee;" d="M125 483h90l-107 -483h-90zM209 657l-100 -101h-60l126 144h84l65 -144h-57z" />
<glyph unicode="&#xef;" d="M125 483h90l-107 -483h-90zM57.5 579q-13.5 14 -13.5 33q0 23 18 40.5t41 17.5q20 0 33.5 -13.5t13.5 -33.5q0 -23 -18 -40.5t-41 -17.5q-20 0 -33.5 14zM265.5 579q-13.5 14 -13.5 33q0 23 18 40.5t41 17.5q20 0 33.5 -13.5t13.5 -33.5q0 -23 -18 -40.5t-41 -17.5 q-20 0 -33.5 14z" />
<glyph unicode="&#xf0;" horiz-adv-x="572" d="M538 303q0 -86 -34.5 -158t-96.5 -114.5t-142 -42.5q-68 0 -120 26.5t-81 73.5t-29 107q0 76 33.5 140t90.5 101t124 37q54 0 98.5 -26.5t67.5 -80.5q-27 92 -120 185l-158 -47l-13 45l132 39q-20 18 -62 50l64 67q56 -42 99 -87l112 33l13 -45l-90 -27 q112 -132 112 -276zM352 94q39 26 61.5 71t22.5 98t-35.5 92t-103.5 39q-46 0 -84.5 -25.5t-61 -69.5t-22.5 -97q0 -60 36.5 -97t100.5 -37q47 0 86 26z" />
<glyph unicode="&#xf1;" horiz-adv-x="559" d="M412 310q5 23 5 32q0 37 -24.5 55t-62.5 18q-41 0 -79 -20t-68 -50l-75 -345h-90l107 483h90l-16 -68q84 80 168 80q67 0 106.5 -32t39.5 -89q0 -15 -5 -40l-74 -334h-90zM327.5 629.5q-10.5 9.5 -26.5 9.5q-40 0 -57 -79h-52q27 134 115 134q27 0 41.5 -12t30.5 -35 q11 -19 21.5 -28.5t26.5 -9.5q38 0 57 79h53q-28 -134 -116 -134q-27 0 -41.5 12t-30.5 35q-11 19 -21.5 28.5z" />
<glyph unicode="&#xf2;" horiz-adv-x="572" d="M71.5 346.5q35.5 67.5 97.5 108t139 40.5q70 0 121 -27.5t78.5 -76t27.5 -112.5q0 -76 -35.5 -143t-98 -107.5t-139.5 -40.5q-105 0 -165.5 59.5t-60.5 156.5q0 75 35.5 142.5zM405 377.5q-36 37.5 -99 37.5q-50 0 -90 -29.5t-63 -77t-23 -100.5q0 -65 36 -102.5 t99 -37.5q50 0 90 29t63 77t23 101q0 65 -36 102.5zM187 700h89l112 -144h-66z" />
<glyph unicode="&#xf3;" horiz-adv-x="572" d="M71.5 346.5q35.5 67.5 97.5 108t139 40.5q70 0 121 -27.5t78.5 -76t27.5 -112.5q0 -76 -35.5 -143t-98 -107.5t-139.5 -40.5q-105 0 -165.5 59.5t-60.5 156.5q0 75 35.5 142.5zM405 377.5q-36 37.5 -99 37.5q-50 0 -90 -29.5t-63 -77t-23 -100.5q0 -65 36 -102.5 t99 -37.5q50 0 90 29t63 77t23 101q0 65 -36 102.5zM319 556l176 144h91l-199 -144h-68z" />
<glyph unicode="&#xf4;" horiz-adv-x="572" d="M71.5 346.5q35.5 67.5 97.5 108t139 40.5q70 0 121 -27.5t78.5 -76t27.5 -112.5q0 -76 -35.5 -143t-98 -107.5t-139.5 -40.5q-105 0 -165.5 59.5t-60.5 156.5q0 75 35.5 142.5zM405 377.5q-36 37.5 -99 37.5q-50 0 -90 -29.5t-63 -77t-23 -100.5q0 -65 36 -102.5 t99 -37.5q50 0 90 29t63 77t23 101q0 65 -36 102.5zM379 657l-100 -101h-60l126 144h84l65 -144h-57z" />
<glyph unicode="&#xf5;" horiz-adv-x="572" d="M71.5 346.5q35.5 67.5 97.5 108t139 40.5q70 0 121 -27.5t78.5 -76t27.5 -112.5q0 -76 -35.5 -143t-98 -107.5t-139.5 -40.5q-105 0 -165.5 59.5t-60.5 156.5q0 75 35.5 142.5zM405 377.5q-36 37.5 -99 37.5q-50 0 -90 -29.5t-63 -77t-23 -100.5q0 -65 36 -102.5 t99 -37.5q50 0 90 29t63 77t23 101q0 65 -36 102.5zM332.5 629.5q-10.5 9.5 -26.5 9.5q-40 0 -57 -79h-52q27 134 115 134q27 0 41.5 -12t30.5 -35q11 -19 21.5 -28.5t26.5 -9.5q38 0 57 79h53q-28 -134 -116 -134q-27 0 -41.5 12t-30.5 35q-11 19 -21.5 28.5z" />
<glyph unicode="&#xf6;" horiz-adv-x="572" d="M71.5 346.5q35.5 67.5 97.5 108t139 40.5q70 0 121 -27.5t78.5 -76t27.5 -112.5q0 -76 -35.5 -143t-98 -107.5t-139.5 -40.5q-105 0 -165.5 59.5t-60.5 156.5q0 75 35.5 142.5zM405 377.5q-36 37.5 -99 37.5q-50 0 -90 -29.5t-63 -77t-23 -100.5q0 -65 36 -102.5 t99 -37.5q50 0 90 29t63 77t23 101q0 65 -36 102.5zM227.5 579q-13.5 14 -13.5 33q0 23 18 40.5t41 17.5q20 0 33.5 -13.5t13.5 -33.5q0 -23 -18 -40.5t-41 -17.5q-20 0 -33.5 14zM435.5 579q-13.5 14 -13.5 33q0 23 18 40.5t41 17.5q20 0 33.5 -13.5t13.5 -33.5 q0 -23 -18 -40.5t-41 -17.5q-20 0 -33.5 14z" />
<glyph unicode="&#xf7;" horiz-adv-x="511" d="M282.5 557q16.5 16 38.5 16q19 0 32.5 -13.5t13.5 -32.5q0 -23 -16 -38.5t-39 -15.5q-19 0 -32.5 13.5t-13.5 32.5q0 22 16.5 38zM56 367h453l-13 -60h-453zM200 182q16 16 38 16q19 0 32.5 -13.5t13.5 -32.5q0 -22 -16.5 -38t-38.5 -16q-19 0 -32 13.5t-13 32.5 q0 22 16 38z" />
<glyph unicode="&#xf8;" horiz-adv-x="572" d="M492 415q43 -57 43 -136q0 -76 -35.5 -143t-98 -107.5t-139.5 -40.5q-97 0 -156 51l-40 -39h-65l74 72q-39 55 -39 132q0 75 35.5 142.5t97.5 108t139 40.5q93 0 153 -48l37 36h65zM144 138l253 247q-35 30 -91 30q-50 0 -90 -29.5t-63 -77t-23 -100.5q0 -39 14 -70z M425 349l-254 -248q35 -33 94 -33q50 0 90 29t63 77t23 101q0 42 -16 74z" />
<glyph unicode="&#xf9;" horiz-adv-x="559" d="M146 174q-5 -22 -5 -33q0 -37 26 -55t69 -18q36 0 72.5 20.5t66.5 50.5l76 344h90l-107 -483h-90l15 68q-84 -80 -168 -80q-66 0 -106 32t-40 89q0 9 1.5 20t4.5 20l74 334h90zM181 700h89l112 -144h-66z" />
<glyph unicode="&#xfa;" horiz-adv-x="559" d="M146 174q-5 -22 -5 -33q0 -37 26 -55t69 -18q36 0 72.5 20.5t66.5 50.5l76 344h90l-107 -483h-90l15 68q-84 -80 -168 -80q-66 0 -106 32t-40 89q0 9 1.5 20t4.5 20l74 334h90zM313 556l176 144h91l-199 -144h-68z" />
<glyph unicode="&#xfb;" horiz-adv-x="559" d="M146 174q-5 -22 -5 -33q0 -37 26 -55t69 -18q36 0 72.5 20.5t66.5 50.5l76 344h90l-107 -483h-90l15 68q-84 -80 -168 -80q-66 0 -106 32t-40 89q0 9 1.5 20t4.5 20l74 334h90zM373 657l-100 -101h-60l126 144h84l65 -144h-57z" />
<glyph unicode="&#xfc;" horiz-adv-x="559" d="M146 174q-5 -22 -5 -33q0 -37 26 -55t69 -18q36 0 72.5 20.5t66.5 50.5l76 344h90l-107 -483h-90l15 68q-84 -80 -168 -80q-66 0 -106 32t-40 89q0 9 1.5 20t4.5 20l74 334h90zM221.5 579q-13.5 14 -13.5 33q0 23 18 40.5t41 17.5q20 0 33.5 -13.5t13.5 -33.5 q0 -23 -18 -40.5t-41 -17.5q-20 0 -33.5 14zM429.5 579q-13.5 14 -13.5 33q0 23 18 40.5t41 17.5q20 0 33.5 -13.5t13.5 -33.5q0 -23 -18 -40.5t-41 -17.5q-20 0 -33.5 14z" />
<glyph unicode="&#xfd;" horiz-adv-x="497" d="M32 -114q20 0 35.5 10t32.5 35l43 66l-89 486h93l66 -379l236 379h100l-366 -575q-35 -55 -72.5 -79.5t-88.5 -24.5q-39 0 -69 11l31 80q20 -9 48 -9zM282 556l176 144h91l-199 -144h-68z" />
<glyph unicode="&#xfe;" horiz-adv-x="575" d="M67 -184h-90l188 851h90l-56 -251q65 79 156 79q84 0 135 -53t51 -147q0 -78 -31 -148.5t-89 -114.5t-134 -44q-53 0 -96 22.5t-68 62.5zM411 377.5q-35 37.5 -91 37.5q-41 0 -77.5 -21.5t-60.5 -54.5l-44 -200q18 -32 54 -51.5t83 -19.5q49 0 88 29.5t61 78t22 102.5 q0 62 -35 99.5z" />
<glyph unicode="&#xff;" horiz-adv-x="497" d="M32 -114q20 0 35.5 10t32.5 35l43 66l-89 486h93l66 -379l236 379h100l-366 -575q-35 -55 -72.5 -79.5t-88.5 -24.5q-39 0 -69 11l31 80q20 -9 48 -9zM190.5 579q-13.5 14 -13.5 33q0 23 18 40.5t41 17.5q20 0 33.5 -13.5t13.5 -33.5q0 -23 -18 -40.5t-41 -17.5 q-20 0 -33.5 14zM398.5 579q-13.5 14 -13.5 33q0 23 18 40.5t41 17.5q20 0 33.5 -13.5t13.5 -33.5q0 -23 -18 -40.5t-41 -17.5q-20 0 -33.5 14z" />
<glyph unicode="&#x131;" d="M125 483h90l-107 -483h-90z" />
<glyph unicode="&#x152;" horiz-adv-x="1099" d="M567 95q-39 -51 -97.5 -79t-133.5 -28q-80 0 -144 37.5t-100 104.5t-36 152q0 114 51 204.5t137.5 140.5t187.5 50q81 0 142 -34.5t91 -108.5l29 133h447l-19 -88h-347l-43 -195h340l-20 -88h-340l-46 -208h347l-19 -88h-447zM570.5 544.5q-54.5 43.5 -135.5 43.5 q-75 0 -138.5 -39.5t-100 -108.5t-36.5 -152q0 -64 26.5 -111.5t73.5 -73.5t108 -26q67 0 127 34.5t97 94.5l48 216q-15 79 -69.5 122.5z" />
<glyph unicode="&#x153;" horiz-adv-x="953" d="M526 192q0 -34 18 -64t53 -48t83 -18q35 0 71 12t61 32l29 -63q-33 -25 -77 -40t-91 -15q-56 0 -99.5 20t-70 50t-34.5 59q-27 -37 -52 -63t-64.5 -46t-92.5 -20q-101 0 -162.5 58t-61.5 158q0 74 34.5 141.5t96.5 108.5t139 41q53 0 93.5 -21t64.5 -51t32 -58 q39 55 88.5 92.5t122.5 37.5q60 0 107 -25t74.5 -73.5t27.5 -114.5q0 -29 -9 -70h-380zM835 293q0 55 -35 91.5t-99 36.5q-43 0 -78.5 -22t-58 -55.5t-27.5 -66.5h296q2 8 2 16zM216 387q-40 -28 -63 -76t-23 -103q0 -64 35.5 -102t97.5 -38q49 0 88.5 28.5t62.5 76 t23 102.5q0 69 -38 104.5t-95 35.5q-48 0 -88 -28z" />
<glyph unicode="&#x178;" horiz-adv-x="632" d="M273 279l-175 388h109l130 -298l260 298h122l-346 -388l-61 -279h-100zM294.5 746q-13.5 14 -13.5 33q0 23 18 40.5t41 17.5q20 0 33.5 -13.5t13.5 -33.5q0 -23 -18 -40.5t-41 -17.5q-20 0 -33.5 14zM502.5 746q-13.5 14 -13.5 33q0 23 18 40.5t41 17.5q20 0 33.5 -13.5 t13.5 -33.5q0 -23 -18 -40.5t-41 -17.5q-20 0 -33.5 14z" />
<glyph unicode="&#x2c6;" horiz-adv-x="275" d="M229 657l-100 -101h-60l126 144h84l65 -144h-57z" />
<glyph unicode="&#x2dc;" horiz-adv-x="317" d="M205.5 629.5q-10.5 9.5 -26.5 9.5q-40 0 -57 -79h-52q27 134 115 134q27 0 41.5 -12t30.5 -35q11 -19 21.5 -28.5t26.5 -9.5q38 0 57 79h53q-28 -134 -116 -134q-27 0 -41.5 12t-30.5 35q-11 19 -21.5 28.5z" />
<glyph unicode="&#x300;" horiz-adv-x="0" d="M-132 700h89l112 -144h-66z" />
<glyph unicode="&#x301;" horiz-adv-x="0" d="M-166 556l176 144h91l-199 -144h-68z" />
<glyph unicode="&#x302;" horiz-adv-x="0" d="M-46 657l-100 -101h-60l126 144h84l65 -144h-57z" />
<glyph unicode="&#x303;" horiz-adv-x="0" d="M-111.5 629.5q-10.5 9.5 -26.5 9.5q-40 0 -57 -79h-52q27 134 115 134q27 0 41.5 -12t30.5 -35q11 -19 21.5 -28.5t26.5 -9.5q38 0 57 79h53q-28 -134 -116 -134q-27 0 -41.5 12t-30.5 35q-11 19 -21.5 28.5z" />
<glyph unicode="&#x308;" horiz-adv-x="0" d="M-268.5 579q-13.5 14 -13.5 33q0 23 18 40.5t41 17.5q20 0 33.5 -13.5t13.5 -33.5q0 -23 -18 -40.5t-41 -17.5q-20 0 -33.5 14zM-60.5 579q-13.5 14 -13.5 33q0 23 18 40.5t41 17.5q20 0 33.5 -13.5t13.5 -33.5q0 -23 -18 -40.5t-41 -17.5q-20 0 -33.5 14z" />
<glyph unicode="&#x30a;" horiz-adv-x="0" d="M-101 708q33 33 77 33q41 0 66.5 -25.5t25.5 -66.5q0 -44 -33 -77t-77 -33q-41 0 -66.5 26t-25.5 66q0 44 33 77zM8.5 681.5q-13.5 13.5 -35.5 13.5q-24 0 -42.5 -18t-18.5 -42q0 -22 13.5 -36t35.5 -14q25 0 43 17.5t18 42.5q0 23 -13.5 36.5z" />
<glyph unicode="&#x2000;" horiz-adv-x="454" />
<glyph unicode="&#x2001;" horiz-adv-x="908" />
<glyph unicode="&#x2002;" horiz-adv-x="454" />
<glyph unicode="&#x2003;" horiz-adv-x="908" />
<glyph unicode="&#x2004;" horiz-adv-x="302" />
<glyph unicode="&#x2005;" horiz-adv-x="227" />
<glyph unicode="&#x2006;" horiz-adv-x="151" />
<glyph unicode="&#x2007;" horiz-adv-x="151" />
<glyph unicode="&#x2008;" horiz-adv-x="113" />
<glyph unicode="&#x2009;" horiz-adv-x="181" />
<glyph unicode="&#x200a;" horiz-adv-x="50" />
<glyph unicode="&#x2010;" horiz-adv-x="300" d="M38 281h240l-18 -78h-240z" />
<glyph unicode="&#x2011;" horiz-adv-x="300" d="M38 281h240l-18 -78h-240z" />
<glyph unicode="&#x2012;" horiz-adv-x="300" d="M38 281h240l-18 -78h-240z" />
<glyph unicode="&#x2013;" horiz-adv-x="593" d="M38 281h533l-18 -78h-533z" />
<glyph unicode="&#x2014;" horiz-adv-x="833" d="M38 281h773l-18 -78h-773z" />
<glyph unicode="&#x2018;" horiz-adv-x="237" d="M263 640q-28 -13 -53.5 -36.5t-34.5 -47.5q2 1 8 1q20 0 34.5 -14t14.5 -37q0 -27 -21 -47t-48 -20q-25 0 -42.5 17t-17.5 48q0 49 36.5 98t88.5 75z" />
<glyph unicode="&#x2019;" horiz-adv-x="237" d="M106 475q29 14 54 37t34 47h-8q-20 0 -34 14t-14 37q0 27 20.5 47t47.5 20q25 0 42.5 -17.5t17.5 -47.5q0 -48 -36.5 -97.5t-88.5 -75.5z" />
<glyph unicode="&#x201a;" horiz-adv-x="238" d="M-18 -87q28 13 53.5 36.5t34.5 47.5h-9q-20 0 -34 14t-14 36q0 27 20.5 47t47.5 20q26 0 43 -17t17 -48q0 -49 -36 -98t-88 -75z" />
<glyph unicode="&#x201c;" horiz-adv-x="409" d="M269 640q-29 -13 -54 -36.5t-34 -47.5q1 1 8 1q20 0 34 -14t14 -37q0 -27 -20.5 -47t-47.5 -20q-25 0 -42.5 17t-17.5 48q0 49 36.5 98t88.5 75zM440 640q-28 -13 -53.5 -36.5t-34.5 -47.5q2 1 9 1q20 0 34 -14t14 -37q0 -27 -20.5 -47t-47.5 -20q-25 0 -42.5 17 t-17.5 48q0 49 36 98t88 75z" />
<glyph unicode="&#x201d;" horiz-adv-x="409" d="M106 475q29 14 54 37t34 47h-8q-20 0 -34 14t-14 37q0 27 20.5 47t47.5 20q25 0 42.5 -17.5t17.5 -47.5q0 -48 -36.5 -97.5t-88.5 -75.5zM279 475q29 14 54 37t34 47h-9q-20 0 -34 14t-14 37q0 27 20.5 47t47.5 20q25 0 42.5 -17.5t17.5 -47.5q0 -49 -36 -98t-88 -75z " />
<glyph unicode="&#x201e;" horiz-adv-x="409" d="M-18 -87q28 13 53.5 36.5t34.5 47.5h-9q-20 0 -34 14t-14 36q0 27 20.5 47t47.5 20q26 0 43 -17t17 -48q0 -49 -36 -98t-88 -75zM154 -87q28 13 53.5 36.5t34.5 47.5h-9q-20 0 -34 13.5t-14 36.5q0 27 20.5 47t47.5 20q25 0 42.5 -17t17.5 -48q0 -48 -36.5 -97.5 t-88.5 -75.5z" />
<glyph unicode="&#x2022;" horiz-adv-x="358" d="M95.5 160.5q-28.5 28.5 -28.5 70.5q0 32 17 60.5t46 45t61 16.5q43 0 71.5 -28.5t28.5 -71.5q0 -32 -17.5 -60t-46 -44.5t-61.5 -16.5q-42 0 -70.5 28.5z" />
<glyph unicode="&#x2026;" horiz-adv-x="713" d="M33 94.5q20 19.5 49 19.5q23 0 39.5 -16.5t16.5 -41.5q0 -27 -20 -47t-48 -20q-24 0 -40.5 17t-16.5 41q0 28 20 47.5zM271 94.5q20 19.5 49 19.5q23 0 39.5 -16.5t16.5 -41.5q0 -27 -20 -47t-48 -20q-24 0 -40.5 17t-16.5 41q0 28 20 47.5zM508.5 94.5 q20.5 19.5 48.5 19.5q24 0 40.5 -16.5t16.5 -41.5q0 -27 -20.5 -47t-47.5 -20q-25 0 -41.5 17t-16.5 41q0 28 20.5 47.5z" />
<glyph unicode="&#x202f;" horiz-adv-x="181" />
<glyph unicode="&#x2039;" horiz-adv-x="307" d="M29 243l200 177h91l-204 -182l116 -175h-83z" />
<glyph unicode="&#x203a;" horiz-adv-x="307" d="M280 240l-200 -177h-91l204 182l-116 175h83z" />
<glyph unicode="&#x2044;" horiz-adv-x="144" d="M-226 0l573 667h62l-574 -667h-61z" />
<glyph unicode="&#x205f;" horiz-adv-x="227" />
<glyph unicode="&#x20ac;" horiz-adv-x="699" d="M246.5 18q-66.5 30 -109 85.5t-53.5 129.5h-59l14 60h42q0 39 10 82h-34l13 60h38q29 74 82.5 129t123 84.5t145.5 29.5q102 0 173 -45t106 -121l-95 -36q-26 56 -76 84.5t-113 28.5q-73 0 -136.5 -41.5t-98.5 -112.5h298l-14 -60h-307q-10 -40 -11 -82h300l-13 -60h-280 q16 -72 71 -114t137 -42q46 0 91 20t81 56l76 -54q-52 -57 -118.5 -84t-135.5 -27q-81 0 -147.5 30z" />
<glyph unicode="&#x2122;" horiz-adv-x="454" d="M152 447h-28l43 194h-62l5 26h152l-5 -26h-62zM476 629l-115 -182h-8l-35 182l-40 -182h-28l48 220h43l29 -160l99 160h43l-48 -220h-28z" />
<glyph unicode="&#x25fc;" horiz-adv-x="485" d="M0 485h485v-485h-485v485z" />
<glyph horiz-adv-x="296" d="M130 404h-80l17 79h80l7 32q18 79 59 120.5t106 41.5q56 0 93 -25l-34 -63q-18 14 -50 14q-34 0 -54 -22t-30 -66l-7 -32h98l-17 -79h-98l-90 -404h-90z" />
<glyph horiz-adv-x="250" d="M191 572l-80 -66l-32 44l142 117h62l-88 -400h-71z" />
<glyph horiz-adv-x="390" d="M128.5 279q-43.5 19 -64.5 54l45 41q20 -28 50.5 -42.5t66.5 -14.5q38 0 60 20.5t22 51.5q0 25 -26 39.5t-70 14.5q-25 0 -31 -1l13 58q24 -2 61 -2q41 0 63.5 16.5t22.5 45.5q0 26 -26 41t-63 15q-58 0 -106 -41l-26 45q27 23 64 38t74 15q68 0 111.5 -27.5t43.5 -76.5 q0 -42 -30.5 -70t-81.5 -32q33 -7 55.5 -30t22.5 -56q0 -31 -18 -58.5t-52 -45t-80 -17.5q-57 0 -100.5 19z" />
<glyph horiz-adv-x="250" d="M132 305l-80 -66l-32 44l142 117h62l-88 -400h-71z" />
<glyph horiz-adv-x="390" d="M8 56q105 62 160.5 99t85 70t29.5 65q0 28 -23 43.5t-57 15.5q-33 0 -63 -12.5t-49 -33.5l-32 47q28 27 66 41.5t80 14.5q63 0 106.5 -28.5t43.5 -82.5q0 -58 -61.5 -113t-181.5 -125h193l-12 -57h-298z" />
<glyph horiz-adv-x="390" d="M69.5 12q-43.5 19 -64.5 54l45 41q20 -28 50.5 -42.5t66.5 -14.5q38 0 60 20.5t22 51.5q0 25 -26 39.5t-70 14.5q-25 0 -31 -1l13 58q24 -2 61 -2q41 0 63.5 16.5t22.5 45.5q0 26 -26 41t-63 15q-58 0 -106 -41l-26 45q27 23 64 38t74 15q68 0 111.5 -27.5t43.5 -76.5 q0 -42 -30.5 -70t-81.5 -32q33 -7 55.5 -30t22.5 -56q0 -31 -18 -58.5t-52 -45t-80 -17.5q-57 0 -100.5 19z" />
<glyph horiz-adv-x="390" d="M248 0h-70l21 96h-196l10 50l225 254h98l-55 -247h56l-12 -57h-56zM86 153h125l41 182z" />
</font>
</defs>
</svg>
